<?xml version="1.0" standalone="no"?>
<!DOCTYPE svg PUBLIC "-//W3C//DTD SVG 1.1//EN" "http://www.w3.org/Graphics/SVG/1.1/DTD/svg11.dtd" >
<svg xmlns="http://www.w3.org/2000/svg">
<metadata>Generated by IcoMoon</metadata>
<defs>
<font id="roadthemes-icon" horiz-adv-x="1024">
<font-face units-per-em="1024" ascent="960" descent="-64" />
<missing-glyph horiz-adv-x="1024" />
<glyph unicode="&#x20;" horiz-adv-x="512" d="" />
<glyph unicode="&#xe900;" glyph-name="bag-outline" d="M512 896c-123.333 0-224-100.667-224-224v-32h-128c-34.967 0-64-29.033-64-64v-432c0-78.653 65.347-144 144-144h544c77.771 0 144 62.847 144 141.5v434.5c0 34.967-29.033 64-64 64h-128v32c0 123.333-100.667 224-224 224zM512 832c88.745 0 160-71.255 160-160v-32h-320v32c0 88.745 71.255 160 160 160zM160 576h154.777c1.559-0.269 3.354-0.423 5.186-0.423s3.627 0.154 5.374 0.449l-0.188-0.026h373.629c1.559-0.269 3.354-0.423 5.186-0.423s3.627 0.154 5.374 0.449l-0.188-0.026h154.852v-434.5c0-42.307-36.811-77.5-80-77.5h-544c-42.307 0-80 37.693-80 80z" />
<glyph unicode="&#xe901;" glyph-name="cart-outline" d="M352 192c-34.967 0-64-29.033-64-64s29.033-64 64-64c34.967 0 64 29.033 64 64s-29.033 64-64 64zM800 192c-34.967 0-64-29.033-64-64s29.033-64 64-64c34.967 0 64 29.033 64 64s-29.033 64-64 64zM96 832c-0.135 0.002-0.293 0.003-0.453 0.003-17.675 0-32.003-14.328-32.003-32.003s14.328-32.003 32.003-32.003c0.159 0 0.318 0.001 0.477 0.003h101.128l91.336-517.563c2.742-15.119 15.805-26.436 31.512-26.437h512c0.135-0.002 0.293-0.003 0.453-0.003 17.675 0 32.003 14.328 32.003 32.003s-14.328 32.003-32.003 32.003c-0.159 0-0.318-0.001-0.477-0.003h-485.128l-91.336 517.563c-2.742 15.119-15.805 26.436-31.512 26.437v0zM256 736c-0.135 0.002-0.293 0.003-0.453 0.003-17.675 0-32.003-14.328-32.003-32.003s14.328-32.003 32.003-32.003c0.159 0 0.318 0.001 0.477 0.003h600.949l-51.195-256h-485.777c-0.135 0.002-0.293 0.003-0.453 0.003-17.675 0-32.003-14.328-32.003-32.003s14.328-32.003 32.003-32.003c0.159 0 0.318 0.001 0.477 0.003h498.835c22.694-0.016 42.644 16.325 47.098 38.578 0 0.001 0 0.003 0 0.004s0 0.003 0 0.004v0l57.602 288c5.809 29.050-17.476 57.435-47.102 57.414z" />
<glyph unicode="&#xe902;" glyph-name="bag" d="M864 801.296h-191.185v61.376c0 52.944-43.056 96-96 96h-127.632c-52.944 0-96-43.056-96-96v-61.376h-193.184c-35.344 0-64-28.656-64-64v-735.968c0-35.344 28.656-64 64-64h704c35.344 0 64 28.656 64 64v735.968c0 35.344-28.656 64-64 64h0.001zM417.184 862.672c0 17.664 14.336 32 32 32h127.632c17.664 0 32-14.336 32-32v-61.376h-191.632v61.376zM864 1.328h-704v735.968h193.184v-65.84s-0.848-31.967 31.809-31.967c36 0 32.192 31.967 32.192 31.967v65.84h191.632v-65.84s-2.128-32.128 31.872-32.128c32 0 32.128 32.128 32.128 32.128v65.84h191.184v-735.968z" />
<glyph unicode="&#xe903;" glyph-name="handbag" d="M1022.74 17.36l-83.407 503.777c-7.44 65.312-66.977 118.432-132.721 118.432h-70.656v85.28c0 130.16-92.848 236.033-222.976 236.033-130.096 0-224.943-105.872-224.943-236.032v-85.28h-76.672c-65.744 0-125.28-53.12-132.528-117.057l-77.28-504.16c-2.976-26.56 2.224-47.503 15.408-62.288 12.431-13.904 30.527-20.976 53.743-20.976h873.568c32.912 0 51.776 13.216 61.84 24.32 9.216 10.208 19.648 28.144 16.624 57.951zM352.049 724.865c0 94.848 66.127 172.031 160.943 172.031s158.977-77.184 158.977-172.031v-85.28h-319.92zM947.168-0.446l-872.498-0.45c-5.504 0-11.008 2.945-9.712 10.689l77.248 504.096c3.84 33.44 35.504 61.68 69.152 61.68h76.689v-72.927c-19.072-11.072-32.048-31.488-32.048-55.137 0-35.344 28.656-64 64-64s64 28.656 64 64c0 23.616-12.928 44-31.952 55.088v72.992h319.903v-72.992c-19.008-11.088-31.952-31.488-31.952-55.088 0-35.344 28.656-64 64-64s64 28.656 64 64c0 23.649-12.976 44.065-32.048 55.153v72.927h70.656c33.664 0 65.313-28.256 69.408-63.44l83.344-503.28c0.4-4.095-2.815-9.31-12.191-9.31z" />
<glyph unicode="&#xe904;" glyph-name="shopping-cart" d="M718.231 217.179c-52.219 0-94.556-42.324-94.556-94.543 0-52.232 42.324-94.563 94.543-94.563 52.232 0 94.556 42.331 94.556 94.55-0.046 52.205-42.351 94.503-94.543 94.556zM718.231 70.411c-28.848 0-52.219 23.377-52.219 52.212 0 28.841 23.371 52.219 52.205 52.219 28.848 0.013 52.219-23.377 52.219-52.205-0.033-28.828-23.384-52.179-52.205-52.225zM971.032 740.662h-751.165l-13.212 53.748c-11.411 46.887-53.503 79.815-101.748 79.616h-51.53c-11.689 0-21.166-9.477-21.166-21.172 0-11.689 9.477-21.166 21.166-21.166h51.53c28.709 0.232 53.815-19.318 60.636-47.212l102.781-419.741c11.47-46.795 53.596-79.576 101.768-79.205h439.655c48.848-0.391 91.358 33.311 102.126 80.947l79.801 348.801c1.444 6.199-0.060 12.715-4.079 17.662-4.046 4.974-10.146 7.821-16.563 7.722zM870.609 375.782c-6.45-28.324-31.808-48.291-60.861-47.914h-439.655c-28.669-0.311-53.788 19.152-60.636 46.993l-79.232 323.463h714.245zM431.894 217.179c-52.219 0-94.556-42.324-94.556-94.543 0-52.232 42.331-94.563 94.55-94.563 52.225 0 94.556 42.331 94.556 94.55-0.046 52.205-42.351 94.503-94.55 94.556zM431.894 70.411c-28.841 0-52.219 23.377-52.219 52.212 0 28.841 23.377 52.219 52.212 52.219 28.841 0.013 52.219-23.377 52.219-52.205-0.033-28.828-23.391-52.179-52.212-52.225z" />
<glyph unicode="&#xe905;" glyph-name="bag2" d="M896 640h-128v9c0 137-110 247-247 247h-16c-137 0-249-110-249-247v-9h-128l-64-640h896l-64 640zM320 649c0 101.4 83.6 183 185 183h16c101.4 0 183-81.6 183-183v-9h-384v9zM135.6 64l49.8 512h70.6v-72.6c-19.2-11-32-31.8-32-55.4 0-35.4 28.6-64 64-64s64 28.6 64 64c0 23.6-12.8 44.4-32 55.4v72.6h384v-72.6c-19.2-11-32-31.8-32-55.4 0-35.4 28.6-64 64-64s64 28.6 64 64c0 23.6-12.8 44.4-32 55.4v72.6h70.8l49.8-512h-753z" />
<glyph unicode="&#xe906;" glyph-name="shopping-cart-solid" d="M160 736c-17.625 0-32-14.375-32-32s14.375-32 32-32h71l84-336c7.125-28.5 32.625-48 62-48h367c28.875 0 53.375 19.125 61 47l83 305h-536l16-64h437l-61-224h-367l-84 336c-7.125 28.5-32.625 48-62 48zM704 288c-52.625 0-96-43.375-96-96s43.375-96 96-96c52.625 0 96 43.375 96 96s-43.375 96-96 96zM416 288c-52.625 0-96-43.375-96-96s43.375-96 96-96c52.625 0 96 43.375 96 96s-43.375 96-96 96zM416 224c18 0 32-14 32-32s-14-32-32-32c-18 0-32 14-32 32s14 32 32 32zM704 224c18 0 32-14 32-32s-14-32-32-32c-18 0-32 14-32 32s14 32 32 32z" />
<glyph unicode="&#xe907;" glyph-name="basket-outline" d="M136.832 608c-39.574 0.040-72.444-32.497-72.824-72.063-0.079-7.053 0.939-14.075 3.027-20.813l-0.223 0.746 103.383-364.539c0.002-0.006 0.006-0.012 0.008-0.020 13.711-48.69 58.532-82.503 109.117-82.313h465.453c50.525-0.044 95.298 33.566 109.363 82.094-0.041-0.168-0.023-0.109-0.006-0.050l0.057 0.226 103.398 364.602c0.445 1.498 0.805 3.282 1.010 5.112l0.013 0.146 1.203 11c0.12 1.041 0.189 2.248 0.189 3.471 0 0.1 0 0.199-0.001 0.299v-0.015c-0.35 39.591-33.239 72.158-72.832 72.117zM136.766 544c0.005 0 0.011 0 0.018 0s0.012 0 0.018 0h750.398c0.005 0 0.011 0 0.018 0s0.012 0 0.019 0h-0.001c4.907 0.004 8.236-3.2 8.625-7.934l-0.578-5.324-102.621-361.844c-6.212-21.42-25.528-35.918-47.832-35.898-0.004 0-0.009 0-0.014 0s-0.010 0-0.014 0h-465.601c-0.018 0-0.039 0-0.061 0s-0.043 0-0.064 0h0.003c-22.132-0.083-41.278 14.363-47.273 35.668-0.071 0.247-0.078 0.268-0.085 0.289l0.065-0.226-103.398 364.602c-0.13 0.475-0.206 0.723-0.285 0.969l0.063-0.227c-0.116 0.373-0.173 0.762-0.168 1.152-0.001-0.039 0-0.008 0.002 0.023l0.002 0.067c0.046 5.181 3.584 8.689 8.766 8.684zM518.164 455.965c-28.14-1.404-55.472-12.997-76.219-33.641-33.195-33.030-43.309-83.035-25.551-126.367s60.057-71.864 106.887-72.098c0.023 0 0.049 0 0.076 0s0.054 0 0.080 0h-0.004c63.786-0.016 116.265 52.203 116.566 115.988 0 0.020 0 0.043 0 0.066 0 0.030 0 0.061 0 0.091v-0.005c-0.001 46.83-28.319 89.268-71.563 107.242-16.216 6.74-33.39 9.565-50.273 8.723zM521.277 392.109c7.564 0.368 15.272-0.92 22.598-3.965 19.506-8.108 32.081-26.936 32.117-48.055-0.172-29.245-23.232-52.194-52.477-52.223-21.12 0.14-39.887 12.812-47.898 32.359-8.022 19.575-3.529 41.807 11.469 56.73 9.374 9.327 21.584 14.538 34.191 15.152zM512.871 863.984c-0.26 0.008-0.566 0.012-0.873 0.012-10.432 0-19.699-4.992-25.541-12.717l-0.058-0.080-192-256 51.203-38.398 166.398 221.863 166.398-221.863 51.203 38.398-192 256c-5.73 7.579-14.627 12.502-24.686 12.784l-0.045 0.001z" />
<glyph unicode="&#xe908;" glyph-name="shopping-basket-solid" d="M512 861l-285-285h-163v-192h40l89-297 7-23h624l7 23 89 297h40v192h-163zM512 770l194-194h-388zM128 512h768v-64h-24l-7-23-89-297h-528l-89 297-7 23h-24zM352 416v-224h64v224zM480 416v-224h64v224zM608 416v-224h64v224z" />
<glyph unicode="&#xe909;" glyph-name="heart" d="M287.984 845.84c31.376 0 88.094-15.008 180.094-105.616l45.616-44.912 44.928 45.632c63.872 64.896 131.84 105.2 177.376 105.2 61.408 0 109.809-21.008 157.009-68.096 44.464-44.368 68.992-103.36 68.992-166.112 0.032-62.784-24.448-121.824-69.408-166.672-3.664-3.712-196.992-212.304-358.96-387.104-7.632-7.248-16.352-8.32-20.991-8.32-4.576 0-13.2 1.024-20.8 8.096-39.472 43.905-325.552 362-358.815 395.232-44.528 44.416-69.025 103.456-69.025 166.224 0.015 62.752 24.511 121.728 69.040 166.144 43.295 43.264 93.984 60.304 154.944 60.304zM287.982 909.84c-76.528 0-144-22.895-200.176-79.008-117.072-116.768-117.072-306.128 0-422.96 33.424-33.44 357.855-394.337 357.855-394.337 18.48-18.496 42.753-27.68 66.96-27.68 24.225 0 48.4 9.184 66.912 27.68 0 0 354.88 383.024 358.656 386.85 117.040 116.88 117.040 306.24 0 423.007-58.112 58-123.024 86.784-202.208 86.784-75.648 0-160-60.32-223.008-124.32-64.992 63.985-146.736 123.984-224.992 123.984z" />
<glyph unicode="&#xe90a;" glyph-name="heart2" d="M304 800c-132.375 0-240-108.875-240-240 0-45.75 20.75-85.375 40-114s39-47 39-47l369-370 23 23 346 347c0 0 79 69.625 79 161 0 131.125-107.625 240-240 240-109.875 0-180.625-66.125-208-94-27.375 27.875-98.125 94-208 94zM304 736c95.625 0 184-93 184-93l24-27 24 27c0 0 88.375 93 184 93 97.375 0 176-79.875 176-176 0-49.375-60-116-60-116l-324-324-324 324c0 0-15.5 14.875-31 38s-29 53.25-29 78c0 96.125 78.625 176 176 176z" />
<glyph unicode="&#xe90b;" glyph-name="heart-solid" d="M720 800c-92.544 0-170.464-57.728-208-91.328-37.536 33.6-115.456 91.328-208 91.328-132.352 0-240-107.648-240-240 0-82.88 75.68-158.304 78.72-161.312l369.28-369.28 369.088 369.088c3.232 3.2 78.912 78.624 78.912 161.504 0 132.352-107.648 240-240 240z" />
<glyph unicode="&#xe90c;" glyph-name="heart-outline" d="M318.16 832c-123.368 0-220.909-103.216-222.16-225.293 0-0.001 0-0.001 0-0.002s0-0.001 0-0.002v0c-1.187-117.974 46.254-219.503 117.23-306.031 70.969-86.519 165.372-159.483 262.77-225.59 0.006-0.004 0.014-0.008 0.020-0.012 0.004-0.002 0.008-0.006 0.012-0.008 21.639-14.704 50.336-14.698 71.969 0.020 97.388 66.108 191.785 139.071 262.754 225.59 70.975 86.527 118.422 188.054 117.245 306.027 0 0.001 0 0.003 0 0.004s0 0.003 0 0.004v0c-1.252 122.076-98.792 225.293-222.16 225.293-96.488 0-160.194-59.35-193.84-102.309-33.646 42.959-97.351 102.309-193.84 102.309zM318.16 768c108.809 0 165.219-110.313 165.219-110.313 5.373-10.569 16.166-17.684 28.621-17.684s23.248 7.115 28.537 17.502l0.084 0.182c0 0 56.41 110.313 165.219 110.313 87.671 0 157.25-73.344 158.16-161.945 1.002-100.683-38.293-186.237-102.73-264.793-64.439-78.558-154.12-148.679-249.242-213.246-0.098-0.069-0.106-0.075-0.115-0.082l0.088 0.062c0.114-0.069 0.104-0.062 0.094-0.056l-0.125 0.076c-95.132 64.567-184.815 134.689-249.254 213.246-64.437 78.555-103.726 164.107-102.715 264.789v0.004c0.91 88.602 70.489 161.945 158.16 161.945z" />
<glyph unicode="&#xe90d;" glyph-name="ios-heart-outline" d="M718.77 800c-78.838 0-164.428-35.198-206.77-105.6-42.34 70.402-127.932 105.6-206.77 105.6-137.936 0-241.23-86.476-241.23-231.558 0-62.576 25.124-143.848 81.846-211.314 56.718-67.47 90.458-103.4 200.306-176 109.848-72.604 165.848-85.128 165.848-85.128s56 12.524 165.848 85.128c109.846 72.6 143.588 108.53 200.306 176 56.722 67.466 81.846 148.738 81.846 211.314 0 145.082-103.294 231.558-241.23 231.558zM853.66 377.718c-53.704-63.88-84.36-97.79-193.458-169.894-80.474-53.192-130.504-72.602-148.204-78.466-17.7 5.866-67.728 25.278-148.204 78.466-109.096 72.104-139.752 106.012-193.458 169.896-24.13 28.702-43.714 62.548-56.632 97.886-11.58 31.684-17.704 63.786-17.704 92.836 0 60.568 20.262 111.286 58.594 146.67 18.28 16.874 40.316 29.984 65.504 38.968 25.89 9.238 54.532 13.92 85.132 13.92 76.036 0 146.434-35.364 179.348-90.092l27.422-45.596 27.422 45.596c32.916 54.728 103.314 90.092 179.348 90.092 30.6 0 59.242-4.682 85.132-13.918 25.188-8.986 47.224-22.096 65.504-38.968 38.332-35.386 58.594-86.104 58.594-146.672 0-29.050-6.124-61.152-17.708-92.836-12.916-35.336-32.5-69.184-56.632-97.888z" />
<glyph unicode="&#xe90e;" glyph-name="shuffle" d="M402.304 454.144l39.264 55.248-134.304 183.28h-304.528v-64h271.488zM918.783 628.672l-77.536-69.535c-9.344-8.945-12.368-23.44-3.025-32.368l5.472-8.065c9.376-8.944 24.496-8.944 33.824 0l127.744 115.504c0.176 0.16 0.384 0.193 0.544 0.336l8.464 8.096c4.672 4.496 7.008 10.368 6.976 16.288 0.032 5.872-2.304 11.776-6.976 16.224l-8.464 8.096c-0.16 0.16-0.336 0.225-0.544 0.368l-129.728 118.432c-9.36 8.945-24.464 8.945-33.84 0l-5.471-8.064c-9.36-8.944-6.32-23.408 3.023-32.336l76.048-68.976h-231.76l-409.312-576h-271.488v-64h304.512l409.328 576zM1005.81 107.232c-0.16 0.16-0.337 0.226-0.545 0.37l-129.728 118.43c-9.36 8.944-24.464 8.944-33.84 0l-5.471-8.064c-9.36-8.945-6.32-23.409 3.023-32.336l76.336-69.233-199.008 0.273-114.432 177.008-39.28-55.248 120.656-185.76 234.944-0.288-77.216-69.248c-9.344-8.945-12.368-23.44-3.025-32.368l5.472-8.065c9.376-8.944 24.496-8.944 33.824 0l127.744 115.504c0.176 0.16 0.384 0.192 0.544 0.336l8.464 8.096c4.672 4.496 7.008 10.368 6.976 16.288 0.032 5.872-2.304 11.776-6.976 16.224z" />
<glyph unicode="&#xe90f;" glyph-name="refresh" d="M497.408 61.44c-0.080 0.193-0.272 0.323-0.385 0.483l-91.92 143.664c-6.528 10.72-20.688 14.527-31.728 8.512l-8.193-5.040c-11.007-6-10.767-21.537-4.255-32.256l58.927-91.409c-5.024 1.104-10.096 2-15.056 3.296-103.184 26.993-190.495 96.832-239.535 191.6-46.336 89.52-55.040 191.695-24.512 287.743 30.512 96.048 99.775 174.464 189.295 220.784 15.248 7.888 21.2 26.64 13.312 41.856-7.872 15.264-26.64 21.231-41.855 13.327-104.272-53.952-184.4-145.28-219.969-257.152-35.552-111.856-25.424-230.881 28.544-335.138 57.136-110.336 158.832-191.664 279.024-223.136 1.36-0.352 2.784-0.56 4.16-0.911l-81.311-41.233c-11.008-6.032-14.657-19.631-8.128-30.351l3.152-8.176c6.56-10.72 17.84-14.527 28.815-8.512l148.832 76.209c0.193 0.128 0.385 0.096 0.578 0.224l9.984 5.456c5.52 3.024 9.168 7.969 10.624 13.505 1.52 5.52 0.815 11.663-2.448 16.991zM913.904 639.187c-57.056 110.304-155.586 191.63-275.762 223.118-8.56 2.24-17.311 3.984-26.048 5.712l79.824 40.48c11.008 6.033 17.568 19.632 11.040 30.369l-3.153 8.16c-6.56 10.736-20.752 14.528-31.727 8.528l-148.816-76.208c-0.176-0.112-0.384-0.080-0.577-0.208l-9.967-5.472c-5.537-3.040-9.168-7.967-10.624-13.503-1.52-5.52-0.816-11.648 2.464-16.976l5.92-9.712c0.096-0.192 0.272-0.305 0.384-0.497l91.92-143.648c6.512-10.736 20.688-14.528 31.712-8.513l7.216 5.025c11.008 6 11.727 21.536 5.231 32.24l-59.2 91.856c13.008-2 25.968-4.416 38.624-7.76 103.232-27.040 187.393-96.864 236.4-191.568 46.32-89.519 55.024-191.695 24.48-287.728-30.511-96.047-96.655-174.448-186.174-220.816-15.233-7.887-21.168-26.607-13.28-41.87 5.519-10.64 16.335-16.768 27.599-16.768 4.8 0 9.664 1.12 14.272 3.488 104.272 53.936 181.248 145.279 216.816 257.119 35.536 111.904 25.393 230.929-28.574 335.152z" />
<glyph unicode="&#xe910;" glyph-name="ios-shuffle" d="M724.242 545.708l-20.242 24.584 123.568 101.708h-92.234c-186.654 0-258.294-149.022-327.574-277.664-3.24-6.016-6.466-12.008-9.692-17.958-39.672-73.214-81.958-122.484-129.28-150.628-27.642-16.442-65.986-33.75-140.788-33.75v32.5c95.874 0 166.196 27.346 241.932 167.122 3.212 5.93 6.428 11.898 9.654 17.888 70.3 130.536 149.982 294.49 355.748 294.49h92.56l-123.894 103.708 20.242 24.292 171.758-144-171.758-142.292zM398.068 519.622c-39.672 73.214-81.958 122.484-129.28 150.628-27.642 16.442-65.986 33.75-140.788 33.75v-32.5c95.874 0 166.196-27.346 241.932-167.122 3.212-5.928 6.428-11.896 9.654-17.888 0.876-1.624 1.75-3.254 2.628-4.888 6.020 10.876 12.214 21.834 18.678 32.788-0.938 1.74-1.884 3.498-2.824 5.232zM724.242 350.292l-20.242-24.584 123.568-101.708h-92.234c-145.386 0-220.992 90.414-280.056 191.184-3.536-6.55-7.050-13.102-10.546-19.628-2.35-4.384-4.688-8.74-7.026-13.090 61.536-100.020 144.802-190.466 297.628-190.466h92.56l-123.894-103.708 20.242-24.292 171.758 144-171.758 142.292z" />
<glyph unicode="&#xe911;" glyph-name="ios-shuffle-strong" d="M730.838 656h27.62l-101.476-83.168 40.616-49.144 198.402 164.312-198.272 168-40.736-49.956 102.366-86.044h-28.52c-207.454 0-292.988-159.24-361.714-287.454-2.724-5.084-5.43-9.98-8.12-14.976l-0.118-0.19c-3.182-5.906-6.352-12.228-9.52-18.076-71.124-131.26-133.786-166.428-223.368-167.282v-64.022c75.25 0 115.126 18.902 144.472 36.356 49.87 29.662 94.084 89.118 135.166 164.934 3.082 5.688 6.166 11.504 9.264 17.252l0.45 0.876c2.918 5.422 5.844 10.546 8.78 16.028 66.608 124.328 135.486 252.554 304.708 252.554zM697.596 372.312l-40.616-49.144 101.478-83.168h-27.62c-141.456 0-212.792 89.602-271.298 191.624l-35.296-65.236c62.868-99.64 149.988-190.388 306.594-190.388h28.52l-102.366-86.044 40.736-49.956 198.272 168-198.404 164.312zM351.368 496.696c3.168-5.848 6.338-12.17 9.52-18.076l0.118-0.19c2.436-4.524 4.884-8.98 7.35-13.554 11.64 21.46 23.96 43.496 37.39 65.298-40.546 74.158-84.166 132.264-133.272 161.47-29.348 17.454-69.224 36.356-144.474 36.356v-64.022c89.582-0.854 152.244-36.022 223.368-167.282z" />
<glyph unicode="&#xe912;" glyph-name="repeat-outline" d="M639.664 752.324c-17.67-0.007-31.991-14.333-31.991-32.003 0-8.998 3.713-17.128 9.691-22.943l73.378-73.378-73.371-73.371c-5.904-5.809-9.562-13.886-9.562-22.817 0-17.675 14.328-32.003 32.003-32.003 8.931 0 17.007 3.658 22.813 9.558l96.004 96.004c5.791 5.791 9.373 13.792 9.373 22.629s-3.582 16.838-9.373 22.629l-96 96c-5.821 5.983-13.951 9.695-22.947 9.695-0.006 0-0.013 0-0.019 0h0.001zM287.906 656c-105.483-0.315-191.591-86.424-191.906-191.906 0-0.014 0-0.030 0-0.047s0-0.033 0-0.049v0.003-32c-0.002-0.135-0.003-0.293-0.003-0.453 0-17.675 14.328-32.003 32.003-32.003s32.003 14.328 32.003 32.003c0 0.159-0.001 0.318-0.003 0.477v-0.024 31.906c0.212 71.030 57.064 127.882 128.094 128.094h415.906c0.135-0.002 0.293-0.003 0.453-0.003 17.675 0 32.003 14.328 32.003 32.003s-14.328 32.003-32.003 32.003c-0.159 0-0.318-0.001-0.477-0.003h-415.976c-0.014 0-0.030 0-0.047 0s-0.033 0-0.049 0h0.003zM383.371 400.309c-8.648-0.263-16.394-3.918-21.993-9.672l-96.007-96.007c-5.791-5.791-9.373-13.792-9.373-22.629s3.582-16.838 9.373-22.629l96-96c5.809-5.904 13.886-9.562 22.817-9.562 17.675 0 32.003 14.328 32.003 32.003 0 8.931-3.658 17.007-9.558 22.813l-73.375 73.375 73.371 73.371c5.984 5.821 9.697 13.951 9.697 22.948 0 17.675-14.328 32.003-32.003 32.003-0.335 0-0.668-0.005-1-0.015l0.049 0.001zM895.52 496.453c-17.467-0.271-31.523-14.494-31.523-32 0-0.159 0.001-0.319 0.003-0.478v0.024-31.906c-0.212-71.030-57.064-127.882-128.094-128.094h-415.906c-0.135 0.002-0.293 0.003-0.453 0.003-17.675 0-32.003-14.328-32.003-32.003s14.328-32.003 32.003-32.003c0.159 0 0.318 0.001 0.477 0.003h415.976c0.014 0 0.030 0 0.047 0s0.033 0 0.049 0h-0.003c105.483 0.315 191.591 86.424 191.906 191.906 0 0.014 0 0.030 0 0.047s0 0.033 0 0.049v-0.003 32c0.002 0.135 0.003 0.294 0.003 0.454 0 17.675-14.328 32.003-32.003 32.003-0.169 0-0.338-0.001-0.506-0.004h0.025z" />
<glyph unicode="&#xe913;" glyph-name="sync-alt-solid" d="M512 832c-163.625 0-300.25-101.125-356-244l59-24c46.625 119.5 159.75 204 297 204 103.75 0 196.25-50.875 254-128h-126v-64h224v224h-64v-99c-70.125 80.375-173.75 131-288 131zM809 332c-46.625-119.5-159.75-204-297-204-104.875 0-197 51.625-255 128h127v64h-224v-224h64v99c70-79.375 172.625-131 288-131 163.625 0 300.25 101.125 356 244z" />
<glyph unicode="&#xe914;" glyph-name="star2" d="M512 892l-29-66-104-233-254-27-72-8 54-48 189-171-53-250-15-70 63 36 221 128 221-128 63-36-15 70-53 250 189 171 54 48-72 8-254 27-104 233zM512 735l82-185 8-17 18-2 201-21-150-135-14-13 4-18 42-197-175 100-16 10-16-10-175-100 42 197 4 18-14 13-150 135 219 23 8 17z" />
<glyph unicode="&#xe915;" glyph-name="star-solid" d="M970.75 558.5l-325.5 34.375-133.25 298.875-133.25-298.875-325.5-34.375 243.125-219.125-67.875-320.125 283.5 163.5 283.5-163.5-67.875 320.125z" />
<glyph unicode="&#xe916;" glyph-name="star-half-alt-solid" d="M512 884l-29-65-104-234-254-26-72-8 54-48 189-171-53-250-15-70h1l62 36 221 127 284-163-15 70-53 250 189 171 54 48-72 8-254 26-104 234zM512 727l82-185 8-16 18-2 202-21-151-136-14-12 4-18 42-198-175 101-16 9z" />
<glyph unicode="&#xe917;" glyph-name="search" d="M913.38 117.22l-188.18 188.18c43.5 57.412 69.68 130.039 69.68 208.78 0 0.134 0 0.267 0 0.401v-0.021c0 192.68-156.76 349.44-349.44 349.44s-349.44-156.76-349.44-349.44 156.76-349.44 349.44-349.44c0.113 0 0.246 0 0.38 0 78.741 0 151.368 26.18 209.65 70.311l-0.87-0.631 188.18-188.18c8.803-7.895 20.499-12.723 33.323-12.723 27.614 0 50 22.386 50 50 0 12.823-4.827 24.519-12.764 33.37l0.041-0.047zM195.84 514.56c0 137.85 111.75 249.6 249.6 249.6s249.6-111.75 249.6-249.6c0-137.85-111.75-249.6-249.6-249.6v0c-137.781 0.171-249.429 111.818-249.6 249.583v0.017z" />
<glyph unicode="&#xe918;" glyph-name="magnifier" d="M1014.64-9.040l-310.93 312.833c57.952 69.408 92.88 158.704 92.88 256.208 0 220.912-179.088 400-400 400s-400-179.088-400-400 179.088-400 400-400c100.368 0 192.048 37.056 262.288 98.144l310.496-312.448c12.496-12.497 32.769-12.497 45.265 0 12.48 12.496 12.48 32.752 0 45.263zM396.59 223.473c-185.856 0-336.528 150.672-336.528 336.528s150.672 336.528 336.528 336.528c185.856 0 336.528-150.672 336.528-336.528s-150.672-336.528-336.528-336.528z" />
<glyph unicode="&#xe919;" glyph-name="search2" d="M914.912 87.264l-232.416 232.448c46.72 56.192 74.848 128.32 74.848 207.072 0 179.040-145.12 324.128-324.128 324.128s-324.128-145.12-324.128-324.128c0-179.008 145.152-324.128 324.128-324.128 78.784 0 150.912 28.128 207.072 74.848l232.416-232.448 42.208 42.208zM143.2 526.784c0 159.904 130.080 290.016 290.016 290.016 159.904 0 290.016-130.112 290.016-290.016s-130.112-290.016-290.016-290.016c-159.936 0-290.016 130.112-290.016 290.016z" />
<glyph unicode="&#xe91a;" glyph-name="loupe" d="M450.948 960c-248.646 0-450.948-202.302-450.948-450.948 0-248.66 202.302-450.948 450.948-450.948 248.66 0 450.948 202.288 450.948 450.948 0 248.646-202.288 450.948-450.948 450.948zM450.948 141.354c-202.746 0-367.696 164.95-367.696 367.696s164.95 367.698 367.696 367.698 367.696-164.95 367.696-367.696-164.95-367.698-367.696-367.698zM1011.804 7.056l-238.656 238.656c-16.262 16.262-42.598 16.262-58.86 0-16.262-16.248-16.262-42.612 0-58.86l238.656-238.656c8.13-8.13 18.774-12.196 29.43-12.196 10.642 0 21.298 4.066 29.43 12.196 16.262 16.248 16.262 42.612 0 58.86z" />
<glyph unicode="&#xe91b;" glyph-name="search1" d="M282.734 726.964c-14.768 14.78-38.728 14.78-53.496 0-54.832-54.832-81.782-131.216-73.95-209.58 1.954-19.522 18.4-34.074 37.606-34.074 1.262 0 2.534 0.064 3.796 0.19 20.796 2.080 35.966 20.632 33.886 41.414-5.574 55.69 13.444 109.84 52.158 148.556 14.78 14.766 14.78 38.728 0 53.494zM432.552 960c-238.51 0-432.552-194.042-432.552-432.552s194.042-432.552 432.552-432.552 432.552 194.042 432.552 432.552-194.044 432.552-432.552 432.552zM432.552 170.562c-196.792 0-356.886 160.094-356.886 356.886s160.094 356.886 356.886 356.886c196.78 0 356.886-160.094 356.886-356.886s-160.094-356.886-356.886-356.886zM1012.916 0.58l-274.918 274.916c-14.78 14.78-38.716 14.78-53.496 0-14.78-14.768-14.78-38.728 0-53.496l274.918-274.916c7.39-7.39 17.062-11.084 26.748-11.084s19.358 3.694 26.748 11.084c14.778 14.768 14.778 38.728 0 53.496z" />
<glyph unicode="&#xe91c;" glyph-name="eye-outline" d="M511.32 768c-168.227 0-337.614-97.588-467.906-284.352 0.035 0.053 0.004 0.010-0.027-0.033l-0.067-0.099c-14.635-21.209-15.065-49.392-1.098-71.043 101.151-158.277 267.966-284.473 469.098-284.473 199.295 0 369.021 126.333 470.504 285.207 13.576 21.117 13.572 48.439-0.016 69.551-0.093 0.154-0.108 0.178-0.124 0.202l0.077-0.128c-101.701 157.076-272.204 285.168-470.441 285.168zM511.32 704c170.295 0 324.129-112.993 416.672-255.883 0.098-0.153 0.101-0.14 0-0.297 0.055 0.092 0.034 0.061 0.014 0.029l-0.076-0.126c-92.323-144.572-244.574-255.723-416.609-255.723-174.264 0-322.938 110.553-415.234 255.027-0.104 0.167-0.132 0.21-0.16 0.253l0.075-0.121c121.452 174.025 271.824 256.84 415.32 256.84zM512 640c-105.66 0-192-86.34-192-192s86.34-192 192-192c105.66 0 192 86.34 192 192s-86.34 192-192 192zM512 576c71.071 0 128-56.929 128-128s-56.929-128-128-128c-71.071 0-128 56.929-128 128s56.929 128 128 128z" />
<glyph unicode="&#xe91d;" glyph-name="eye" d="M640 448c0-70.692-57.308-128-128-128v0c-70.692 0-128 57.308-128 128v0c0 70.692 57.308 128 128 128v0c70.692 0 128-57.308 128-128v0zM981.68 482.8c-52.92 81.84-121.58 151.36-198.54 201.060-85.14 55.040-179.14 84.14-271.82 84.14-85.040 0-168.66-24.3-248.54-72.22-81.46-48.86-155.26-120.24-219.36-212.14-7.17-10.179-11.46-22.836-11.46-36.495 0-12.851 3.797-24.814 10.33-34.831l-0.15 0.245c52.82-82.66 120.8-152.28 196.56-201.3 85.3-55.26 177.1-83.26 272.62-83.26 93.42 0 187.62 28.86 272.4 83.44 76.92 49.54 145.44 119.32 198.16 201.84 6.327 9.793 10.087 21.76 10.087 34.604 0 12.975-3.837 25.053-10.438 35.163l0.151-0.247zM512 256c-106.039 0-192 85.961-192 192s85.961 192 192 192c106.039 0 192-85.961 192-192v0c-0.125-105.988-86.012-191.875-191.988-192h-0.012z" />
<glyph unicode="&#xe91e;" glyph-name="look" d="M512 755.072c-187.104 0-332.928-117.12-511.808-306.976 154.112-162.336 283.424-307.2 511.808-307.2s396.224 183.36 511.808 303.744c-118.304 141.024-286.176 310.4-511.808 310.4zM512 175.040c-202.752 0-325.12 125.728-464.768 273.024 166.144 173.248 298.24 272.864 464.768 272.864 197.152 0 351.2-142.176 465.856-274.912-112.736-117.568-265.376-271.008-465.856-271.008zM512 652.704c-112.896 0-204.736-91.84-204.736-204.704s91.84-204.704 204.736-204.704 204.736 91.84 204.736 204.704-91.84 204.704-204.736 204.704zM512 277.408c-94.048 0-170.592 76.512-170.592 170.592s76.544 170.592 170.592 170.592 170.592-76.512 170.592-170.592c0-94.048-76.544-170.592-170.592-170.592zM512 567.424c-65.856 0-119.424-53.568-119.424-119.424s53.568-119.424 119.424-119.424c65.856 0 119.424 53.568 119.424 119.424s-53.568 119.424-119.424 119.424zM512 362.688c-47.040 0-85.312 38.272-85.312 85.312s38.272 85.312 85.312 85.312 85.312-38.272 85.312-85.312c0-47.040-38.272-85.312-85.312-85.312z" />
<glyph unicode="&#xe91f;" glyph-name="eye2" d="M512 85.333c-352.405 0-512 278.208-512 362.667s159.595 362.667 512 362.667c352.405 0 512-278.208 512-362.667s-159.595-362.667-512-362.667zM512 768c-323.797 0-469.333-254.379-469.333-320s145.536-320 469.333-320c323.797 0 469.333 254.379 469.333 320s-145.536 320-469.333 320zM512 256c-105.877 0-192 86.123-192 192s86.123 192 192 192c105.877 0 192-86.123 192-192s-86.123-192-192-192zM512 597.333c-82.325 0-149.333-67.008-149.333-149.333s67.008-149.333 149.333-149.333c82.325 0 149.333 67.008 149.333 149.333s-67.008 149.333-149.333 149.333z" />
<glyph unicode="&#xe920;" glyph-name="bars-solid" d="M128 736v-64h768v64zM128 480v-64h768v64zM128 224v-64h768v64z" />
<glyph unicode="&#xe921;" glyph-name="menu-outline" d="M160 672c-0.135 0.002-0.293 0.003-0.453 0.003-17.675 0-32.003-14.328-32.003-32.003s14.328-32.003 32.003-32.003c0.159 0 0.318 0.001 0.477 0.003h703.976c0.135-0.002 0.293-0.003 0.453-0.003 17.675 0 32.003 14.328 32.003 32.003s-14.328 32.003-32.003 32.003c-0.159 0-0.318-0.001-0.477-0.003h0.024zM160 480c-0.135 0.002-0.293 0.003-0.453 0.003-17.675 0-32.003-14.328-32.003-32.003s14.328-32.003 32.003-32.003c0.159 0 0.318 0.001 0.477 0.003h703.976c0.135-0.002 0.293-0.003 0.453-0.003 17.675 0 32.003 14.328 32.003 32.003s-14.328 32.003-32.003 32.003c-0.159 0-0.318-0.001-0.477-0.003h0.024zM160 288c-0.135 0.002-0.293 0.003-0.453 0.003-17.675 0-32.003-14.328-32.003-32.003s14.328-32.003 32.003-32.003c0.159 0 0.318 0.001 0.477 0.003h703.976c0.135-0.002 0.293-0.003 0.453-0.003 17.675 0 32.003 14.328 32.003 32.003s-14.328 32.003-32.003 32.003c-0.159 0-0.318-0.001-0.477-0.003h0.024z" />
<glyph unicode="&#xe922;" glyph-name="navicon-round" d="M834.8 512h-645.6c-33.8 0-61.2-28.6-61.2-64s27.4-64 61.2-64h645.6c33.8 0 61.2 28.6 61.2 64s-27.4 64-61.2 64zM834.8 768h-645.6c-33.8 0-61.2-28.6-61.2-64s27.4-64 61.2-64h645.6c33.8 0 61.2 28.6 61.2 64s-27.4 64-61.2 64zM834.8 256h-645.6c-33.8 0-61.2-28.6-61.2-64s27.4-64 61.2-64h645.6c33.8 0 61.2 28.6 61.2 64s-27.4 64-61.2 64z" />
<glyph unicode="&#xe923;" glyph-name="grid-outline" d="M136 896c-39.334 0-72-32.666-72-72v-272c0-39.334 32.666-72 72-72h272c39.334 0 72 32.666 72 72v272c0 39.334-32.666 72-72 72zM136 832h272c4.986 0 8-3.014 8-8v-272c0-4.986-3.014-8-8-8h-272c-4.986 0-8 3.014-8 8v272c0 4.986 3.014 8 8 8zM616 896c-39.334 0-72-32.666-72-72v-272c0-39.334 32.666-72 72-72h272c39.334 0 72 32.666 72 72v272c0 39.334-32.666 72-72 72zM616 832h272c4.986 0 8-3.014 8-8v-272c0-4.986-3.014-8-8-8h-272c-4.986 0-8 3.014-8 8v272c0 4.986 3.014 8 8 8zM136 416c-39.334 0-72-32.666-72-72v-272c0-39.334 32.666-72 72-72h272c39.334 0 72 32.666 72 72v272c0 39.334-32.666 72-72 72zM136 352h272c4.986 0 8-3.014 8-8v-272c0-4.986-3.014-8-8-8h-272c-4.986 0-8 3.014-8 8v272c0 4.986 3.014 8 8 8zM616 416c-39.334 0-72-32.666-72-72v-272c0-39.334 32.666-72 72-72h272c39.334 0 72 32.666 72 72v272c0 39.334-32.666 72-72 72zM616 352h272c4.986 0 8-3.014 8-8v-272c0-4.986-3.014-8-8-8h-272c-4.986 0-8 3.014-8 8v272c0 4.986 3.014 8 8 8z" />
<glyph unicode="&#xe924;" glyph-name="grid" d="M408 480h-272c-39.765 0-72 32.235-72 72v0 272c0 39.765 32.235 72 72 72v0h272c39.765 0 72-32.235 72-72v0-272c0-39.765-32.235-72-72-72v0zM888 480h-272c-39.765 0-72 32.235-72 72v0 272c0 39.765 32.235 72 72 72v0h272c39.765 0 72-32.235 72-72v0-272c0-39.765-32.235-72-72-72v0zM408 0h-272c-39.765 0-72 32.235-72 72v0 272c0 39.765 32.235 72 72 72v0h272c39.765 0 72-32.235 72-72v0-272c0-39.765-32.235-72-72-72v0zM888 0h-272c-39.765 0-72 32.235-72 72v0 272c0 39.765 32.235 72 72 72v0h272c39.765 0 72-32.235 72-72v0-272c0-39.765-32.235-72-72-72v0z" />
<glyph unicode="&#xe925;" glyph-name="grid2" d="M960-64h-320c-35.344 0-64 28.656-64 64v320c0 35.344 28.656 64 64 64h320c35.344 0 64-28.656 64-64v-320c0-35.344-28.656-64-64-64zM960 320h-320v-320h320v320zM960 512h-320c-35.344 0-64 28.656-64 64v320c0 35.344 28.656 64 64 64h320c35.344 0 64-28.656 64-64v-320c0-35.344-28.656-64-64-64zM960 896h-320v-320h320v320zM384-64h-320c-35.344 0-64 28.656-64 64v320c0 35.344 28.656 64 64 64h320c35.344 0 64-28.656 64-64v-320c0-35.344-28.656-64-64-64zM384 320h-320v-320h320v320zM384 512h-320c-35.344 0-64 28.656-64 64v320c0 35.344 28.656 64 64 64h320c35.344 0 64-28.656 64-64v-320c0-35.344-28.656-64-64-64zM384 896h-320v-320h320v320z" />
<glyph unicode="&#xe926;" glyph-name="apps-outline" d="M208 864c-61.494 0-112-50.506-112-112s50.506-112 112-112c61.494 0 112 50.506 112 112s-50.506 112-112 112zM208 800c27.146 0 48-20.854 48-48s-20.854-48-48-48c-27.146 0-48 20.854-48 48s20.854 48 48 48zM512 864c-61.494 0-112-50.506-112-112s50.506-112 112-112c61.494 0 112 50.506 112 112s-50.506 112-112 112zM512 800c27.146 0 48-20.854 48-48s-20.854-48-48-48c-27.146 0-48 20.854-48 48s20.854 48 48 48zM816 864c-61.494 0-112-50.506-112-112s50.506-112 112-112c61.494 0 112 50.506 112 112s-50.506 112-112 112zM816 800c27.146 0 48-20.854 48-48s-20.854-48-48-48c-27.146 0-48 20.854-48 48s20.854 48 48 48zM208 560c-61.494 0-112-50.506-112-112s50.506-112 112-112c61.494 0 112 50.506 112 112s-50.506 112-112 112zM208 496c27.146 0 48-20.854 48-48s-20.854-48-48-48c-27.146 0-48 20.854-48 48s20.854 48 48 48zM512 560c-61.494 0-112-50.506-112-112s50.506-112 112-112c61.494 0 112 50.506 112 112s-50.506 112-112 112zM512 496c27.146 0 48-20.854 48-48s-20.854-48-48-48c-27.146 0-48 20.854-48 48s20.854 48 48 48zM816 560c-61.494 0-112-50.506-112-112s50.506-112 112-112c61.494 0 112 50.506 112 112s-50.506 112-112 112zM816 496c27.146 0 48-20.854 48-48s-20.854-48-48-48c-27.146 0-48 20.854-48 48s20.854 48 48 48zM208 256c-61.494 0-112-50.506-112-112s50.506-112 112-112c61.494 0 112 50.506 112 112s-50.506 112-112 112zM208 192c27.146 0 48-20.854 48-48s-20.854-48-48-48c-27.146 0-48 20.854-48 48s20.854 48 48 48zM512 256c-61.494 0-112-50.506-112-112s50.506-112 112-112c61.494 0 112 50.506 112 112s-50.506 112-112 112zM512 192c27.146 0 48-20.854 48-48s-20.854-48-48-48c-27.146 0-48 20.854-48 48s20.854 48 48 48zM816 256c-61.494 0-112-50.506-112-112s50.506-112 112-112c61.494 0 112 50.506 112 112s-50.506 112-112 112zM816 192c27.146 0 48-20.854 48-48s-20.854-48-48-48c-27.146 0-48 20.854-48 48s20.854 48 48 48z" />
<glyph unicode="&#xe927;" glyph-name="apps-sharp" d="M112 864h192c8.864 0 16-7.136 16-16v-192c0-8.864-7.136-16-16-16h-192c-8.864 0-16 7.136-16 16v192c0 8.864 7.136 16 16 16zM416 864h192c8.864 0 16-7.136 16-16v-192c0-8.864-7.136-16-16-16h-192c-8.864 0-16 7.136-16 16v192c0 8.864 7.136 16 16 16zM720 864h192c8.864 0 16-7.136 16-16v-192c0-8.864-7.136-16-16-16h-192c-8.864 0-16 7.136-16 16v192c0 8.864 7.136 16 16 16zM112 560h192c8.864 0 16-7.136 16-16v-192c0-8.864-7.136-16-16-16h-192c-8.864 0-16 7.136-16 16v192c0 8.864 7.136 16 16 16zM416 560h192c8.864 0 16-7.136 16-16v-192c0-8.864-7.136-16-16-16h-192c-8.864 0-16 7.136-16 16v192c0 8.864 7.136 16 16 16zM720 560h192c8.864 0 16-7.136 16-16v-192c0-8.864-7.136-16-16-16h-192c-8.864 0-16 7.136-16 16v192c0 8.864 7.136 16 16 16zM112 256h192c8.864 0 16-7.136 16-16v-192c0-8.864-7.136-16-16-16h-192c-8.864 0-16 7.136-16 16v192c0 8.864 7.136 16 16 16zM416 256h192c8.864 0 16-7.136 16-16v-192c0-8.864-7.136-16-16-16h-192c-8.864 0-16 7.136-16 16v192c0 8.864 7.136 16 16 16zM720 256h192c8.864 0 16-7.136 16-16v-192c0-8.864-7.136-16-16-16h-192c-8.864 0-16 7.136-16 16v192c0 8.864 7.136 16 16 16z" />
<glyph unicode="&#xe928;" glyph-name="list" d="M96 512h-64c-17.664 0-32-14.336-32-32v-64c0-17.664 14.336-32 32-32h64c17.664 0 32 14.336 32 32v64c0 17.664-14.336 32-32 32zM992 480h-672c-17.664 0-32-14.336-32-32s14.336-32 32-32h672c17.664 0 32 14.336 32 32s-14.336 32-32 32zM96 256h-64c-17.664 0-32-14.336-32-32v-64c0-17.664 14.336-32 32-32h64c17.664 0 32 14.336 32 32v64c0 17.664-14.336 32-32 32zM992 224h-672c-17.664 0-32-14.336-32-32s14.336-32 32-32h672c17.664 0 32 14.336 32 32s-14.336 32-32 32zM96 768h-64c-17.664 0-32-14.336-32-32v-64c0-17.664 14.336-32 32-32h64c17.664 0 32 14.336 32 32v64c0 17.664-14.336 32-32 32zM320 672h672c17.664 0 32 14.336 32 32s-14.336 32-32 32h-672c-17.664 0-32-14.336-32-32s14.336-32 32-32z" />
<glyph unicode="&#xe929;" glyph-name="list-outline" d="M320 704c-0.135 0.002-0.293 0.003-0.453 0.003-17.675 0-32.003-14.328-32.003-32.003s14.328-32.003 32.003-32.003c0.159 0 0.318 0.001 0.477 0.003h575.976c0.135-0.002 0.293-0.003 0.453-0.003 17.675 0 32.003 14.328 32.003 32.003s-14.328 32.003-32.003 32.003c-0.159 0-0.318-0.001-0.477-0.003h0.024zM320 480c-0.135 0.002-0.293 0.003-0.453 0.003-17.675 0-32.003-14.328-32.003-32.003s14.328-32.003 32.003-32.003c0.159 0 0.318 0.001 0.477 0.003h575.976c0.135-0.002 0.293-0.003 0.453-0.003 17.675 0 32.003 14.328 32.003 32.003s-14.328 32.003-32.003 32.003c-0.159 0-0.318-0.001-0.477-0.003h0.024zM320 256c-0.135 0.002-0.293 0.003-0.453 0.003-17.675 0-32.003-14.328-32.003-32.003s14.328-32.003 32.003-32.003c0.159 0 0.318 0.001 0.477 0.003h575.976c0.135-0.002 0.293-0.003 0.453-0.003 17.675 0 32.003 14.328 32.003 32.003s-14.328 32.003-32.003 32.003c-0.159 0-0.318-0.001-0.477-0.003h0.024zM160 736c-34.967 0-64-29.033-64-64s29.033-64 64-64c34.967 0 64 29.033 64 64s-29.033 64-64 64zM160 512c-34.967 0-64-29.033-64-64s29.033-64 64-64c34.967 0 64 29.033 64 64s-29.033 64-64 64zM160 288c-34.967 0-64-29.033-64-64s29.033-64 64-64c34.967 0 64 29.033 64 64s-29.033 64-64 64z" />
<glyph unicode="&#xe92a;" glyph-name="list-solid" d="M128 800v-192h192v192zM192 736h64v-64h-64zM384 736v-64h480v64zM128 544v-192h192v192zM192 480h64v-64h-64zM384 480v-64h480v64zM128 288v-192h192v192zM192 224h64v-64h-64zM384 224v-64h480v64z" />
<glyph unicode="&#xe92b;" glyph-name="arrow-down" d="M8.2 684.6c0 8.6 3.4 17.401 10 24.001 13.2 13.2 34.8 13.2 48 0l451.8-451.8 445.2 445.2c13.2 13.2 34.8 13.2 48 0s13.2-34.8 0-48l-469.2-469.4c-13.2-13.2-34.8-13.2-48 0l-475.8 475.8c-6.8 6.8-10 15.4-10 24.199z" />
<glyph unicode="&#xe92c;" glyph-name="arrow-left" d="M752.145 960c8.685 0 17.572-3.434 24.237-10.099 13.33-13.33 13.33-35.143 0-48.473l-456.256-456.458 449.591-449.591c13.33-13.33 13.33-35.144 0-48.474s-35.142-13.33-48.472 0l-473.827 473.827c-13.33 13.33-13.33 35.144 0 48.474l480.492 480.694c6.665 6.665 15.55 10.098 24.236 10.098z" />
<glyph unicode="&#xe92d;" glyph-name="arrow-right" d="M271.653-63.192c-8.685 0-17.573 3.432-24.238 10.097-13.33 13.33-13.33 35.144 0 48.474l456.255 456.458-449.59 449.59c-13.33 13.331-13.33 35.145 0 48.475s35.143 13.33 48.473 0l473.827-473.827c13.33-13.33 13.33-35.143 0-48.473l-480.492-480.694c-6.665-6.665-15.551-10.099-24.236-10.099z" />
<glyph unicode="&#xe92e;" glyph-name="arrow-up" d="M8.2 208.6c0-8.6 3.4-17.401 10-24.001 13.2-13.2 34.8-13.2 48 0l451.8 451.8 445.2-445.2c13.2-13.2 34.8-13.2 48 0s13.2 34.8 0 48l-469.2 469.4c-13.2 13.2-34.8 13.2-48 0l-475.8-475.8c-6.8-6.8-10-15.4-10-24.2z" />
<glyph unicode="&#xe92f;" glyph-name="logo-facebook" d="M960 445.3c0 247.4-200.6 448-448 448s-448-200.6-448-448c0-223.6 163.8-408.94 378-442.58v313.040h-113.78v129.54h113.78v98.7c0 112.26 66.9 174.32 169.22 174.32 49.020 0 100.3-8.76 100.3-8.76v-110.26h-56.52c-55.62 0-73.020-34.52-73.020-70v-84h124.24l-19.84-129.54h-104.38v-313.080c214.2 33.62 378 218.96 378 442.62z" />
<glyph unicode="&#xe930;" glyph-name="logo-google" d="M946.32 517.040l-4.52 19.18h-416.88v-176.44h249.080c-25.86-122.8-145.86-187.44-243.88-187.44-71.32 0-146.5 30-196.26 78.22-51.187 50.417-83.064 120.314-83.599 197.658l-0.001 0.102c0 74.32 33.4 148.66 82 197.56s122 76.26 194.98 76.26c83.58 0 143.48-44.38 165.88-64.62l125.38 124.72c-36.78 32.32-137.82 113.76-295.3 113.76-121.5 0-238-46.54-323.16-131.42-84.040-83.58-127.54-204.44-127.54-316.58s41.16-226.96 122.6-311.2c87.020-89.84 210.26-136.8 337.16-136.8 115.46 0 224.9 45.24 302.9 127.32 76.68 80.8 116.34 192.6 116.34 309.8 0 49.34-4.96 78.64-5.18 79.92z" />
<glyph unicode="&#xe931;" glyph-name="logo-pinterest" d="M512.1 896c-247.4 0-448-200.6-448-448 0-183.4 110.4-341 268.2-410.4-1.2 31.2-0.2 68.8 7.8 102.8 8.6 36.4 57.6 244.2 57.6 244.2s-14.4 28.6-14.4 70.8c0 66.4 38.4 116 86.4 116 40.8 0 60.4-30.6 60.4-67.2 0-41-26.2-102.2-39.6-159-11.2-47.6 23.8-86.2 70.8-86.2 84.8 0 142 109 142 238.2 0 98.2-66.2 171.6-186.4 171.6-135.8 0-220.6-101.4-220.6-214.6 0-39 11.6-66.6 29.6-87.8 8.2-9.8 9.4-13.8 6.4-25-2.2-8.2-7-28-9.2-36-3-11.4-12.2-15.4-22.4-11.2-62.6 25.6-91.8 94-91.8 171.2 0 127.2 107.4 279.8 320.2 279.8 171 0 283.6-123.8 283.6-256.6 0-175.8-97.8-307-241.8-307-48.4 0-93.8 26.2-109.4 55.8 0 0-26-103.2-31.6-123.2-9.4-34.6-28-69-45-96 38.015-11.638 81.715-18.358 126.978-18.4h0.022c247.4 0 448 200.6 448 448s-200.4 448.2-447.8 448.2z" />
<glyph unicode="&#xe932;" glyph-name="logo-twitter" d="M992 741c-32.932-14.723-71.134-25.492-111.147-30.405l-1.953-0.195c40.61 24.080 71.232 61.36 86.257 105.825l0.403 1.375c-36.038-21.456-77.975-37.776-122.61-46.587l-2.51-0.413c-36.175 37.862-87.065 61.4-143.454 61.4-0.129 0-0.257 0-0.386 0h0.020c-108.84 0-196.92-86.8-196.92-193.8-0.002-0.287-0.003-0.627-0.003-0.967 0-15.34 1.853-30.248 5.347-44.511l-0.265 1.278c-163.573 7.9-307.776 84.658-405.266 201.694l-0.734 0.906c-16.786-27.845-26.734-61.456-26.78-97.387v-0.013c0-67.2 35.060-126.6 88-161.4-32.98 0.807-63.72 9.678-90.544 24.707l0.984-0.507v-2.4c0-94 68-172.2 158-190-15.561-4.316-33.43-6.797-51.879-6.8h-0.001c-0.098 0-0.213 0-0.329 0-12.983 0-25.66 1.311-37.905 3.807l1.215-0.207c25.020-77 97.84-133 184.1-134.6-66.657-51.774-151.517-83.001-243.671-83.001-0.341 0-0.681 0-1.022 0.001h0.053c-16.591 0.025-32.916 1.042-48.953 2.994l1.953-0.194c84.864-54.941 188.599-87.602 299.963-87.602 0.533 0 1.066 0.001 1.599 0.002h-0.082c362.72 0 560.88 295.4 560.88 551.6 0 8.4-0.22 16.8-0.62 25 38.661 27.719 71.254 60.994 97.386 99.052l0.874 1.348z" />
<glyph unicode="&#xe933;" glyph-name="logo-youtube" d="M1017.28 662.42c0 90-66.2 162.4-148 162.4-110.8 5.18-223.8 7.18-339.28 7.18h-36c-115.2 0-228.4-2-339.2-7.2-81.6 0-147.8-72.8-147.8-162.8-5-71.18-7.12-142.38-7-213.58q-0.3-106.8 6.8-213.8c0-90 66.2-163 147.8-163 116.4-5.4 235.8-7.8 357.2-7.6q182.4-0.6 357.2 7.6c81.8 0 148 73 148 163 4.8 71.4 7 142.6 6.8 214q0.68 106.8-6.52 213.8zM414 252.22v393l290-196.4z" />
<glyph unicode="&#xe934;" glyph-name="logo-instagram" d="M698.66 821.34c102.973-0.317 186.363-83.707 186.68-186.65v-373.35c-0.317-102.973-83.707-186.363-186.65-186.68h-373.35c-102.973 0.317-186.363 83.707-186.68 186.65v373.35c0.317 102.973 83.707 186.363 186.65 186.68h373.35zM698.66 896h-373.32c-143.74 0-261.34-117.6-261.34-261.34v-373.32c0-143.74 117.6-261.34 261.34-261.34h373.32c143.74 0 261.34 117.6 261.34 261.34v373.32c0 143.74-117.6 261.34-261.34 261.34zM754.66 634.66c-30.928 0-56 25.072-56 56s25.072 56 56 56c30.928 0 56-25.072 56-56v0c0-0.036 0-0.078 0-0.12 0-30.862-25.018-55.88-55.88-55.88-0.042 0-0.084 0-0.127 0h0.006zM512 597.34c82.478 0 149.34-66.862 149.34-149.34s-66.862-149.34-149.34-149.34c-82.478 0-149.34 66.862-149.34 149.34v0c0.091 82.442 66.898 149.249 149.331 149.34h0.009zM512 672c-123.712 0-224-100.288-224-224s100.288-224 224-224c123.712 0 224 100.288 224 224v0c0 123.712-100.288 224-224 224v0z" />
<glyph unicode="&#xe935;" glyph-name="logo-linkedin" d="M888.34 896h-747.78c-40.86 0-76.56-29.4-76.56-69.78v-749.44c0-40.6 35.7-76.78 76.56-76.78h747.56c41.080 0 71.88 36.42 71.88 76.78v749.44c0.24 40.38-30.8 69.78-71.66 69.78zM341.74 149.14h-128.36v399.1h128.36zM282 608.92h-0.92c-41.080 0-67.68 30.58-67.68 68.86 0 38.98 27.3 68.84 69.3 68.84s67.7-29.64 68.62-68.84c-0.020-38.28-26.62-68.86-69.32-68.86zM810.86 149.14h-128.36v218.22c0 52.28-18.68 88-65.12 88-35.48 0-56.48-24-65.82-47.38-3.5-8.4-4.44-19.84-4.44-31.52v-227.32h-128.36v399.1h128.36v-55.54c18.68 26.6 47.86 64.88 115.76 64.88 84.26 0 148-55.54 148-175.28z" />
<glyph unicode="&#xe936;" glyph-name="logo-rss" d="M217.12 274.44c-66.46-0.25-120.24-54.184-120.24-120.679 0-66.65 54.030-120.68 120.68-120.68 66.579 0 120.566 53.916 120.68 120.468v0.011c-0.216 66.757-54.343 120.801-121.112 120.88h-0.008zM96 586.66v-173.1c104 0 203.88-30.78 277.34-104.22s104-173.12 104-277.34h173.32c0 303.12-251.32 554.66-554.66 554.66zM96 864v-173.12c370.5 0 658.44-288.16 658.44-658.88h173.56c0 458.68-372.66 832-832 832z" />
<glyph unicode="&#xe937;" glyph-name="logo-twitch" d="M160 896l-64-160v-608h192v-128h128l128 128h160l224 224v544zM832 384l-128-128h-192l-128-128v128h-160v544h608zM640 674h96v-258h-96zM416 674h96v-258h-96z" />
<glyph unicode="&#xe938;" glyph-name="0-facebook2" d="M743.296 614.101l-32.491-129.259c-5.269-20.992-25.664-36.843-47.467-36.843h-85.824v-469.333c0-23.531-19.243-42.667-42.901-42.667h-128.725c-23.659 0-42.901 19.136-42.901 42.667v469.333h-42.901c-23.659 0-42.901 19.136-42.901 42.667v128c0 23.531 19.243 42.667 42.901 42.667h42.901v106.667c0 93.077 67.669 192 193.088 192h128.704c11.861 0 19.221-9.557 19.221-21.333v-170.667c0-11.776-7.36-21.333-19.221-21.333h-107.264v-85.333h128.725c12.267 0 23.403-5.205 30.528-14.272 7.125-9.088 9.515-21.099 6.528-32.96zM557.312 618.667c-0.427-0.021-0.811-0.256-1.237-0.256-11.861 0-21.461 9.557-21.461 21.333v109.312c0 1.92 0.256 3.776 0.725 5.547 3.328 18.005 17.877 34.731 42.176 34.731h83.819v128h-105.259c-98.603 0-150.187-75.136-150.187-149.333v-128c0-11.776-9.6-21.333-21.44-21.333h-64.363v-128h64.363c11.84 0 21.44-9.557 21.44-21.333v-490.667h128.725v490.667c0 11.776 9.6 21.333 21.461 21.333h107.264c1.941 0 5.355 2.667 5.824 4.501l31.040 123.499h-142.891z" />
<glyph unicode="&#xe939;" glyph-name="1-twitter2" d="M679.573 810.667c55.147 0 114.517-21.717 149.611-57.408 43.584 8.32 84.736 23.445 121.685 44.459-14.272-42.752-44.715-78.635-84.288-101.333 38.741 4.501 75.819 14.272 110.165 28.907-25.749-36.715-58.219-69.013-95.659-94.848 0.277-7.829 0.491-15.787 0.491-23.659 0-242.112-189.333-521.451-542.144-521.451-116.928 0-212.757 30.592-297.557 82.539 14.997-1.792 30.229-2.624 45.675-2.624 89.899 0 172.608 29.291 238.293 78.485-83.989 1.408-154.837 54.443-179.157 127.189 11.669-2.155 23.701-3.307 36.117-3.307 17.408 0 34.389 2.219 50.453 6.421-87.744 16.789-150.72 91.264-150.72 180.075 0 0.811 0 1.557 0 2.347 25.856-13.76 55.381-21.995 86.912-22.955-51.499 32.896-85.333 88.896-85.333 152.469 0 33.621 9.429 65.088 25.941 92.053 94.549-110.741 232.811-184.107 392.256-191.829-3.328 13.376-5.013 27.52-5.013 41.749 0 101.227 76.267 182.72 182.272 182.72zM976.747 725.291h0.107zM679.573 853.333c-124.181 0-221.845-96.085-224.725-219.776-122.112 17.536-231.701 77.589-312.491 172.224-8.128 9.493-19.925 14.912-32.299 14.912-1.109 0-2.219-0.043-3.328-0.128-13.547-1.088-25.771-8.576-32.875-20.181-21.099-34.432-32.256-73.984-32.256-114.411 0-32.32 7.104-63.637 20.309-92.203-0.427-0.235-0.875-0.491-1.301-0.747-12.779-7.723-20.587-21.589-20.587-36.565v-2.347c0-62.912 26.389-120.811 69.611-162.283-5.845-10.411-7.125-22.933-3.264-34.496 18.411-55.040 57.408-99.648 107.264-126.912-39.659-14.848-82.155-22.507-126.080-22.507-14.037 0-27.712 0.789-40.64 2.325-1.685 0.213-3.371 0.299-5.056 0.299-17.92 0-34.176-11.371-40.149-28.715-6.528-18.944 0.96-39.915 18.027-50.368 97.493-59.755 202.069-88.789 319.701-88.789 365.973 0 584.661 286.827 584.661 564.117 0 0.768 0 1.557 0 2.325 33.195 25.685 62.208 55.957 86.464 90.283 5.504 7.168 8.747 16.149 8.747 25.899 0 20.864-14.869 38.229-34.56 41.941 2.368 5.525 4.523 11.179 6.443 16.917 5.589 16.747 0.32 35.243-13.269 46.485-7.787 6.443-17.387 9.749-27.051 9.749-7.189 0-14.4-1.835-20.949-5.547-27.499-15.616-57.259-27.456-88.725-35.285-42.539 33.579-102.251 53.781-161.621 53.781v0z" />
<glyph unicode="&#xe93a;" glyph-name="2-youtube2" d="M983.253 169.963c-17.472-39.573-64.256-76.757-106.517-84.651-4.672-0.875-117.056-21.312-364.395-21.312h-0.704c-247.403 0-359.701 20.437-364.352 21.312-42.325 7.872-89.152 45.077-106.624 84.672-1.643 3.755-40.64 94.293-40.64 278.016 0 183.701 38.997 274.283 40.64 278.059 17.472 39.509 64.277 76.693 106.581 84.651 4.693 0.896 116.992 21.291 364.395 21.291 248.043 0 360.427-20.395 365.099-21.291 42.304-7.979 89.067-45.141 106.517-84.629 1.664-3.776 40.747-94.357 40.747-278.080s-39.104-274.261-40.747-278.037zM944.192 708.843c-11.733 26.581-46.933 54.592-75.349 59.947-1.024 0.192-113.835 20.544-356.501 20.544-243.435 0-356.139-20.352-357.248-20.544-28.395-5.355-63.637-33.365-75.371-59.947-0.341-0.789-37.035-87.253-37.035-260.843s36.693-260.011 37.056-260.864c11.733-26.581 46.955-54.592 75.349-59.904 1.109-0.192 113.813-20.565 356.544-20.565h0.704c242.667 0 355.456 20.373 356.565 20.587 28.352 5.291 63.531 33.301 75.285 59.925 0.363 0.811 37.12 87.232 37.12 260.821 0 174.805-36.736 260.011-37.12 260.843zM415.68 258.816c-3.285-1.877-6.933-2.816-10.603-2.816-3.691 0-7.381 0.96-10.709 2.88-6.571 3.819-10.624 10.859-10.624 18.453v341.333c0 7.595 4.053 14.635 10.624 18.453 6.613 3.819 14.699 3.819 21.312 0.064l298.773-170.667c6.656-3.797 10.752-10.859 10.752-18.517s-4.096-14.72-10.752-18.517l-298.773-170.667zM426.432 581.909v-267.819l234.411 133.909-234.411 133.909z" />
<glyph unicode="&#xe93b;" glyph-name="3-dribbble" horiz-adv-x="1023" d="M1022.699 438.912c-0.021-0.384 0.149-0.725 0.107-1.109-0.021-0.213-0.171-0.384-0.192-0.619-4.544-216.149-143.616-399.339-336.512-469.824-2.325-1.408-4.864-2.325-7.637-2.773-52.373-18.197-108.373-28.587-166.891-28.587-141.483 0-269.675 57.813-362.389 150.997-0.704 0.747-1.429 1.408-2.005 2.24-90.923 92.459-147.2 219.115-147.2 358.763 0 20.992 1.643 41.557 4.117 61.909 0.064 0.789-0.171 1.557-0.021 2.368 0.107 0.533 0.469 0.939 0.597 1.472 21.312 165.184 121.664 305.6 261.525 382.72 2.581 2.283 5.483 4.032 8.747 4.843 70.805 37.269 151.168 58.688 236.629 58.688 130.496 0 249.344-49.579 339.819-130.347 0.427-0.235 0.896-0.235 1.323-0.491 2.731-1.728 4.821-4.032 6.464-6.592 100.587-93.568 163.968-226.645 163.968-374.571 0-3.072-0.405-6.037-0.448-9.088zM979.136 420.437c-122.325 10.731-228.139 2.432-319.253-17.173 34.112-109.035 51.861-236.992 39.701-384.661 156.907 69.248 269.035 221.952 279.552 401.835zM511.573-21.333c50.197 0 98.389 8.277 143.744 22.976 15.381 152.981-2.731 283.563-36.608 391.787-266.005-70.549-394.027-238.293-426.795-287.872 83.861-78.443 196.075-126.891 319.659-126.891zM42.603 448c0-119.531 45.269-228.437 119.061-311.381 43.435 62.293 179.157 225.856 443.349 297.152-14.4 39.339-30.741 75.413-48.043 108.224-91.52-43.093-204.757-74.155-341.867-74.155-53.248 0-110.251 4.992-170.709 15.424-0.875-11.691-1.792-23.36-1.792-35.264zM49.579 525.653c205.355-35.776 365.952-2.133 486.464 53.717-15.829 26.816-32.043 51.307-47.979 73.024-85.461 116.459-177.664 182.912-208.171 203.115-119.808-68.672-206.656-188.587-230.315-329.856zM511.573 917.333c-67.136 0-130.773-14.571-188.501-40.128 53.269-38.891 162.347-130.432 250.176-279.168 133.739 71.765 211.093 168.021 239.552 208.661-81.493 68.821-186.432 110.635-301.227 110.635zM844.352 777.515c-33.088-45.995-114.453-143.253-250.283-216.64 19.136-36.011 36.779-74.987 52.117-117.056 95.317 21.12 205.973 30.229 333.568 19.371-3.947 122.368-55.040 232.853-135.403 314.325z" />
<glyph unicode="&#xe93c;" glyph-name="4-facebook-f" d="M616.125 896c-126.144 0-200.125-66.63-200.125-218.438v-133.562h-160v-160h160v-384h160v384h128l32 160h-160v106.5c0 57.184 18.649 85.5 72.313 85.5h87.687v153.438c-15.168 2.048-59.363 6.562-119.875 6.562z" />
<glyph unicode="&#xe93d;" glyph-name="5-google-plus-g" d="M352 736c-159.125 0-288-128.875-288-288s128.875-288 288-288c159.125 0 288 128.875 288 288 0 19.75-2.125 39-6 57.625l-1.5 6.375h-280.5v-96h192c-15.25-90.75-96.875-160-192-160-106 0-192 86-192 192s86 192 192 192c48 0 91.75-17.75 125.5-46.875l68.75 67.375c-51.25 46.875-119.375 75.5-194.25 75.5zM800 608v-96h-96v-64h96v-96h64v96h96v64h-96v96z" />
<glyph unicode="&#xe93e;" glyph-name="6-pinterest-p" d="M515 832c-162.464 0-323-108.266-323-283.562 0-111.456 62.672-174.813 100.688-174.813 15.68 0 24.75 43.71 24.75 56.062 0 14.72-37.562 46.095-37.562 107.375 0 127.296 96.904 217.5 222.312 217.5 107.84 0 187.625-61.236 187.625-173.812 0-84.064-33.752-241.75-143-241.75-39.424 0-73.125 28.481-73.125 69.313 0 59.84 38.313 117.802 38.313 179.562 0 104.832-145.187 85.813-145.187-40.875 0-26.592 3.315-56.026 15.187-80.25-21.824-94.048-62-243.947-62-340.875 0-29.92 4.277-59.361 7.125-89.313 5.376-6.016 2.714-5.383 10.938-2.375 79.808 109.248 72.404 140.399 108.5 283.375 19.488-37.056 69.846-57 109.75-57 168.16 0 243.687 163.881 243.687 311.625 0 157.216-135.848 259.813-285 259.813z" />
<glyph unicode="&#xe93f;" glyph-name="close-outline" d="M287.664 704.324c-17.67-0.007-31.991-14.333-31.991-32.003 0-8.998 3.713-17.128 9.691-22.943l201.378-201.378-201.371-201.371c-5.904-5.809-9.562-13.886-9.562-22.817 0-17.675 14.328-32.003 32.003-32.003 8.931 0 17.007 3.658 22.813 9.558l201.375 201.375 201.371-201.371c5.809-5.904 13.886-9.562 22.817-9.562 17.675 0 32.003 14.328 32.003 32.003 0 8.931-3.658 17.007-9.558 22.813l-201.375 201.375 201.371 201.371c5.904 5.809 9.562 13.886 9.562 22.817 0 17.675-14.328 32.003-32.003 32.003-8.931 0-17.007-3.658-22.813-9.558l-201.375-201.375-201.371 201.371c-5.821 5.983-13.951 9.695-22.947 9.695-0.006 0-0.013 0-0.019 0h0.001z" />
<glyph unicode="&#xe940;" glyph-name="close-circle" d="M512 864c-229.38 0-416-186.62-416-416s186.62-416 416-416 416 186.62 416 416-186.62 416-416 416zM662.62 342.62c6.14-5.842 9.959-14.075 9.959-23.199 0-17.673-14.327-32-32-32-9.125 0-17.357 3.819-23.187 9.946l-105.393 105.373-105.38-105.36c-5.727-5.449-13.492-8.801-22.041-8.801-17.673 0-32 14.327-32 32 0 8.548 3.352 16.314 8.813 22.054l105.347 105.367-105.36 105.38c-5.449 5.727-8.801 13.492-8.801 22.041 0 17.673 14.327 32 32 32 8.548 0 16.314-3.352 22.054-8.813l105.367-105.347 105.38 105.36c5.727 5.449 13.492 8.801 22.041 8.801 17.673 0 32-14.327 32-32 0-8.548-3.352-16.314-8.813-22.054l-105.347-105.367z" />
<glyph unicode="&#xe941;" glyph-name="close-circle-outline" d="M512 864c-229.308 0-416-186.692-416-416s186.692-416 416-416c229.308 0 416 186.692 416 416s-186.692 416-416 416zM512 800c194.692 0 352-157.308 352-352s-157.308-352-352-352c-194.692 0-352 157.308-352 352s157.308 352 352 352zM383.664 608.324c-17.67-0.007-31.991-14.333-31.991-32.003 0-8.998 3.713-17.128 9.691-22.943l105.378-105.378-105.371-105.371c-5.904-5.809-9.562-13.886-9.562-22.817 0-17.675 14.328-32.003 32.003-32.003 8.931 0 17.007 3.658 22.813 9.558l105.375 105.375 105.371-105.371c5.809-5.904 13.886-9.562 22.817-9.562 17.675 0 32.003 14.328 32.003 32.003 0 8.931-3.658 17.007-9.558 22.813l-105.375 105.375 105.371 105.371c5.904 5.809 9.562 13.886 9.562 22.817 0 17.675-14.328 32.003-32.003 32.003-8.931 0-17.007-3.658-22.813-9.558l-105.375-105.375-105.371 105.371c-5.821 5.983-13.951 9.695-22.947 9.695-0.006 0-0.013 0-0.019 0h0.001z" />
<glyph unicode="&#xe942;" glyph-name="person-outline" d="M512 896c-122.503 0-217.089-100.165-207.914-226.32 0-0.001 0-0.001 0-0.002s0-0.001 0-0.002v0c8.779-120.573 99.007-221.676 207.914-221.676 108.912 0 198.98 101.133 207.914 221.633 0 0.001 0 0.001 0 0.002s0 0.001 0 0.002v0c9.222 124.5-85.008 226.363-207.914 226.363zM512 832c89.094 0 150.864-66.137 144.086-157.637-6.747-90.978-76.998-162.363-144.086-162.363-67.092 0-137.463 71.375-144.086 162.32v0.004c-6.823 93.842 54.59 157.676 144.086 157.676zM512 384c-92.885 0-186.352-25.344-262.383-76.023s-134.439-127.959-152.391-227.496c-3.325-18.434-0.152-37.524 10.676-53.344s30.888-27.137 52.098-27.137h704c21.212 0 41.276 11.308 52.109 27.129s14.009 34.918 10.684 53.352v0.004c-17.963 99.536-76.374 176.813-152.406 227.492s-169.502 76.023-262.387 76.023zM512 320c81.115 0 162.948-22.657 226.891-65.277s110.181-103.941 124.918-185.605c0.485-2.688 0.002-4.334-0.289-5.117h-703.020c-0.292 0.788-0.773 2.434-0.289 5.117v0.004c14.728 81.663 60.963 142.981 124.902 185.601s145.772 65.277 226.887 65.277z" />
<glyph unicode="&#xe943;" glyph-name="person-circle-outline" d="M517.8 864c-233.96 3.16-424.96-187.84-421.8-421.8 3.12-224.38 185.82-407.080 410.2-410.2 234-3.2 424.96 187.8 421.76 421.76-3.080 224.42-185.78 407.12-410.16 410.24zM770.64 209.5c-1.466-1.582-3.555-2.569-5.874-2.569-2.612 0-4.932 1.252-6.392 3.188l-0.015 0.020c-17.983 23.374-39.401 43.035-63.703 58.584l-0.997 0.596c-50.92 32.68-115.44 50.68-181.66 50.68s-130.74-18-181.66-50.68c-25.299-16.138-46.717-35.792-64.269-58.578l-0.431-0.582c-1.475-1.957-3.794-3.209-6.406-3.209-2.319 0-4.408 0.987-5.869 2.563l-0.005 0.005c-56.6 60.965-91.823 142.466-93.356 232.174l-0.004 0.306c-3.26 194.62 156.44 357.52 351.14 358s352.86-157.62 352.86-352c0-0.079 0-0.172 0-0.266 0-92.090-35.501-175.889-93.564-238.456l0.204 0.222zM512 672c-39.44 0-75.1-14.78-100.44-41.64s-38-64-35.14-103.86c5.8-78.5 66.62-142.5 135.58-142.5s129.66 64 135.58 142.48c2.96 39.48-9.6 76.28-35.36 103.64-25.44 27-61.040 41.88-100.22 41.88z" />
<glyph unicode="&#xe944;" glyph-name="user" d="M512 800c-123.375 0-224-100.625-224-224 0-77.125 39.375-145.625 99-186-114.125-49-195-162.25-195-294h64c0 141.75 114.25 256 256 256s256-114.25 256-256h64c0 131.75-80.875 245-195 294 59.625 40.375 99 108.875 99 186 0 123.375-100.625 224-224 224zM512 736c88.75 0 160-71.25 160-160s-71.25-160-160-160c-88.75 0-160 71.25-160 160s71.25 160 160 160z" />
<glyph unicode="&#xe945;" glyph-name="user-circle" d="M512 864c-229.375 0-416-186.625-416-416s186.625-416 416-416c229.375 0 416 186.625 416 416s-186.625 416-416 416zM512 800c194.75 0 352-157.25 352-352s-157.25-352-352-352c-194.75 0-352 157.25-352 352s157.25 352 352 352zM512 704c-88 0-160-72-160-160 0-48.5 22.625-91.625 57-121-72-37.375-121-112.625-121-199h64c0 88.75 71.25 160 160 160s160-71.25 160-160h64c0 86.375-49 161.625-121 199 34.375 29.375 57 72.5 57 121 0 88-72 160-160 160zM512 640c53.375 0 96-42.625 96-96s-42.625-96-96-96c-53.375 0-96 42.625-96 96s42.625 96 96 96z" />
<glyph unicode="&#xe946;" glyph-name="call-outline" d="M240.387 895.82c-7.921 0.267-15.424-1.442-20.316-3.219-6.524-2.37-10.295-4.423-14.691-6.25l-0.062-0.027-0.066-0.027c-19.825-8.341-38.844-18.482-56.82-30.293l-0.070-0.043-0.066-0.047c-34.258-22.76-58.383-46.34-73.457-78.551-18.999-40.598-19.749-112.851 47.090-234.273 64.967-118.022 113.383-182.135 207.719-276.207 94.887-94.622 170.381-147.332 276.402-206.793l0.016-0.008c67.055-37.556 115.355-53.971 153.176-58.688s65.796 4.146 81.793 11.598c32.193 14.996 55.947 38.96 78.789 73.277l0.035 0.055 0.035 0.051c11.848 17.957 22.016 36.966 30.375 56.789l0.020 0.047 0.020 0.051c1.829 4.376 3.891 8.132 6.273 14.66s4.633 17.724 2.227 28.344c-4.813 21.239-16.404 30.411-34.066 48.25l-0.028 0.028c-38.992 39.287-113.762 83.108-154.301 103.551l-0.008 0.004h-0.008c-24.302 12.241-39.917 22.268-63.66 22.293s-40.799-12.359-60.617-27.082l-0.008-0.008c-13.677-10.166-23.629-18.128-30.176-21.535s-8.257-4.062-16.297-2.348c-7.535 1.607-30.342 10.857-55.344 26.43s-53.651 37.348-80.102 63.715c-26.443 26.359-48.828 55.497-64.965 80.996s-25.91 49.085-27.398 56.020c-1.693 7.885-1.066 9.384 2.383 15.926s11.532 16.572 21.699 30.414c13.95 18.994 25.557 36.67 25.52 59.57s-9.093 39.036-20.453 63.465l-0.008 0.012-0.004 0.016c-20.069 43.052-65.249 116.386-104.316 154.843l-0.047 0.047c-17.817 17.604-27.037 29.173-48.234 33.953-2.652 0.598-5.34 0.907-7.98 0.996zM235.336 829.594c3.358-2.589 8.807-6.864 16.336-14.301l0.023-0.023 0.023-0.020c25.162-24.755 76.075-103.778 91.238-136.309 11.226-24.145 14.471-35.31 14.473-36.559s-0.611-4.576-13.102-21.582c-8.592-11.697-18.489-22.807-26.734-38.449-8.246-15.643-13.027-37.372-8.34-59.207 4.891-22.785 17.278-47.402 35.891-76.813s43.566-61.893 73.863-92.094c30.289-30.193 62.411-54.628 91.449-72.715s53.543-29.946 75.828-34.699c21.781-4.645 43.447-0.026 59.195 8.172 15.747 8.197 27.003 18.164 38.805 26.938l0.004 0.004c18.376 13.652 22.422 14.453 22.379 14.453s10.64-3.21 34.938-15.449c34.108-17.202 113.159-66.774 137.684-91.484 7.4-7.478 11.664-12.897 14.262-16.258-0.858-1.929-1.057-2.295-2.258-5.164-6.83-16.197-15.14-31.73-24.82-46.402-0.002-0.002-0.002-0.006-0.004-0.008-19.708-29.591-31.443-40.827-52.461-50.617-10.623-4.948-20.797-9.354-46.852-6.105-26.052 3.249-67.349 16.030-129.805 51.008l-0.016 0.008c-103.37 57.975-171.111 105.148-262.5 196.281-91.944 91.687-133.53 146.736-196.843 261.754-61.441 111.617-51.029 163.803-45.188 176.285 9.756 20.848 21.151 32.588 50.828 52.313 14.693 9.648 30.236 17.937 46.438 24.754l-0.133-0.055c3.006 1.249 3.409 1.463 5.398 2.344z" />
<glyph unicode="&#xe947;" glyph-name="call-sharp" d="M957.88 219.72c-10.44 11.12-47.3 44-115.060 87.5-68.26 43.88-118.6 71.24-133.040 77.62-0.914 0.416-1.982 0.658-3.106 0.658-1.794 0-3.444-0.617-4.75-1.65l0.016 0.012c-23.26-18.14-62.42-51.46-64.52-53.26-13.56-11.62-13.56-11.62-24.66-8-19.52 6.4-80.16 38.6-133 91.56s-86.7 115.1-93.1 134.6c-3.66 11.12-3.66 11.12 8 24.68 1.8 2.1 35.14 41.26 53.28 64.5 1.021 1.29 1.638 2.94 1.638 4.734 0 1.124-0.242 2.192-0.677 3.154l0.020-0.048c-6.38 14.46-33.74 64.78-77.62 133.040-43.56 67.74-76.4 104.6-87.52 115.040-1.394 1.317-3.279 2.127-5.353 2.127-0.868 0-1.702-0.142-2.482-0.403l0.055 0.016c-43.184-14.99-80.165-32.178-115.059-52.55l3.059 1.65c-36.837-21.584-68.646-44.284-98.254-69.492l0.954 0.792c-1.656-1.414-2.698-3.503-2.698-5.836 0-0.583 0.065-1.15 0.188-1.695l-0.010 0.051c4.18-19.48 24.16-100.8 86.16-213.44 63.26-114.96 107.1-173.86 200-266.44s153.66-139.060 268.74-202.32c112.64-62 194-82 213.44-86.14 0.492-0.112 1.058-0.176 1.639-0.176 2.34 0 4.437 1.041 5.853 2.686l0.009 0.010c24.411 28.652 47.105 60.462 66.96 94.145l1.72 3.155c18.717 31.833 35.905 68.813 49.514 107.48l1.386 4.52c0.24 0.716 0.378 1.541 0.378 2.398 0 2.059-0.798 3.932-2.102 5.326l0.004-0.004z" />
<glyph unicode="&#xe948;" glyph-name="headphones" d="M917.333-42.667h-42.667c-58.816 0-106.667 47.851-106.667 106.667v256c0 58.816 47.851 106.667 106.667 106.667h42.667c24.107 0 46.123-8.341 64-21.888v21.888c0 258.795-210.539 469.333-469.333 469.333s-469.333-210.539-469.333-469.333v-21.888c17.877 13.547 39.893 21.888 64 21.888h42.667c58.816 0 106.667-47.851 106.667-106.667v-256c0-58.816-47.851-106.667-106.667-106.667h-42.667c-58.816 0-106.667 47.851-106.667 106.667v362.667c0 282.304 229.696 512 512 512s512-229.696 512-512v-362.667c0-58.816-47.851-106.667-106.667-106.667zM42.667 64c0-35.285 28.715-64 64-64h42.667c35.285 0 64 28.715 64 64v256c0 35.285-28.715 64-64 64h-42.667c-35.285 0-64-28.715-64-64v-256zM917.333 384h-42.667c-35.285 0-64-28.715-64-64v-256c0-35.285 28.715-64 64-64h42.667c35.285 0 64 28.715 64 64v256c0 35.285-28.715 64-64 64z" />
<glyph unicode="&#xe949;" glyph-name="headphones-mic" d="M1010.581 68.352l-327.083-130.837c-2.517-1.003-5.205-1.515-7.915-1.515h-206.251c-11.776 0-21.333 9.536-21.333 21.333v42.667c0 11.797 9.557 21.333 21.333 21.333h85.333c11.797 0 21.333-9.536 21.333-21.333v-21.333h95.488l213.333 85.333h-24.363c-50.987 0-92.459 40.213-92.459 89.621v204.779c0 49.408 41.472 89.6 92.459 89.6h71.125c18.347 0 35.349-5.355 49.749-14.336v14.336c0 258.795-210.539 469.333-469.333 469.333s-469.333-210.539-469.333-469.333v-14.336c14.4 8.981 31.424 14.336 49.792 14.336h71.125c50.965 0 92.416-40.192 92.416-89.6v-204.779c0-49.408-41.451-89.621-92.416-89.621h-71.125c-50.987 0-92.459 40.213-92.459 89.621v294.379c0 282.304 229.696 512 512 512s512-229.696 512-512v-359.829c0-8.725-5.312-16.576-13.419-19.819zM42.667 349.867v-196.245c0-25.899 22.336-46.955 49.792-46.955h71.125c27.435 0 49.749 21.056 49.749 46.955v204.779c0 25.877-22.315 46.933-49.749 46.933h-71.125c-27.456 0-49.792-21.056-49.792-46.933v-8.533zM931.584 405.333h-71.125c-27.456 0-49.792-21.056-49.792-46.933v-204.779c0-25.899 22.336-46.955 49.792-46.955h71.125c27.435 0 49.749 21.056 49.749 46.955v204.779c0 25.877-22.315 46.933-49.749 46.933z" />
<glyph unicode="&#xe94a;" glyph-name="headphones2" d="M933.344 499.2c0 235.52-191.136 426.656-426.656 426.656s-426.656-191.136-426.656-426.656v-174.080h1.696c0-5.12 0-10.24 0-13.664 0-112.64 90.464-204.8 203.104-204.8v0 409.6h-1.696c-71.68 0-133.12-35.84-168.96-92.16v75.104c0 216.736 175.776 392.544 392.544 392.544s392.544-175.776 392.544-392.544v-75.104c-35.84 54.624-98.976 92.16-168.96 92.16h-1.696v-409.6h1.696c17.056 0 32.416 1.696 49.504 6.816-51.2-49.504-114.336-83.616-186.016-100.704v59.744h-172.384v-102.4h170.656v6.816c109.216 22.176 203.104 85.344 264.544 174.080 46.080 37.536 76.8 95.584 76.8 160.416 0 5.12 0 10.24 0 13.664v0 174.080zM250.656 478.72v-334.496c-76.8 15.36-136.544 85.344-136.544 167.264s59.744 151.904 136.544 167.264zM557.856 4.256h-102.4v34.144h102.4v-34.144zM762.656 144.224v334.496c78.496-15.36 136.544-85.344 136.544-167.264s-58.016-151.904-136.544-167.264z" />
<glyph unicode="&#xe94b;" glyph-name="phone-volume-solid" d="M608 960v-64c194.080 0 352-157.92 352-352h64c0 229.376-186.624 416-416 416zM276.812 863.812c-16.796 0-33.577-5.48-47.25-16.5l-1.562-1.25-100.625-103.812 2.125 2c-33.3-28.679-42.478-73.982-28.188-112.063 26.965-77.758 95.707-228.122 231.312-363.562 135.896-136.062 287.839-201.855 363-231.187l1.5-0.5c38.861-13.026 80.841-3.736 110.938 22l0.938 0.813 100 100c26.544 26.544 26.544 73.081 0 99.625l-131.125 131.25c-26.62 26.62-73.13 26.62-99.75 0l-63.5-63.5c-22.733 10.85-78.664 38.998-131.812 89.688-52.458 50.025-79.238 107.847-88.938 130.187l64 64c28.083 28.083 29.681 76.298-2.688 102.062l2.938-2.687-132.562 135.687-1.5 1.25c-13.673 11.019-30.454 16.5-47.25 16.5zM608 832v-64c123.488 0 224-100.48 224-224h64c0 158.784-129.184 288-288 288zM276.875 800c2.28 0.004 4.53-0.855 6.75-2.562l130.125-133.25 1.562-1.25c-0.368 0.293 1.23-2.771-2.688-6.688l-94.625-94.625 7.313-19.312c0 0 36.117-98.197 113.312-171.813 75.911-72.398 169.5-111.938 169.5-111.938l19.938-8.5 95.313 95.313c5.38 5.38 3.87 5.38 9.25 0l131.125-131.25c5.456-5.456 5.456-3.669 0-9.125l-97.5-97.5c-14.846-12.619-30.184-15.927-48.625-9.813-72.388 28.307-213.968 90.252-339.75 216.188-126.654 126.5-192.284 270.234-216.375 339.875l-0.125 0.375-0.188 0.438c-4.845 12.814-1.304 31.399 10.062 41.188l1.062 0.938 97.75 100.75c2.221 1.691 4.532 2.559 6.813 2.562zM608 704v-64c52.928 0 96-43.072 96-96h64c0 88.224-71.776 160-160 160z" />
<glyph unicode="&#xe94c;" glyph-name="phone-call" d="M809.283 325.668c-20.964 21.828-46.25 33.499-73.049 33.499-26.583 0-52.085-11.454-73.914-33.283l-68.295-68.078c-5.619 3.026-11.238 5.835-16.641 8.645-7.78 3.89-15.129 7.564-21.396 11.454-63.972 40.631-122.109 93.581-177.869 162.092-27.015 34.147-45.17 62.892-58.353 92.068 17.722 16.209 34.147 33.067 50.14 49.276 6.051 6.051 12.103 12.319 18.154 18.37 45.386 45.386 45.386 104.171 0 149.557l-59.001 59.001c-6.7 6.7-13.616 13.616-20.099 20.532-12.967 13.4-26.583 27.231-40.631 40.199-20.964 20.748-46.034 31.77-72.401 31.77s-51.869-11.022-73.482-31.77c-0.216-0.216-0.216-0.216-0.432-0.432l-73.482-74.13c-27.664-27.664-43.441-61.379-46.899-100.497-5.187-63.108 13.4-121.893 27.664-160.363 35.012-94.445 87.313-181.975 165.333-275.772 94.662-113.032 208.558-202.29 338.664-265.182 49.708-23.557 116.058-51.437 190.188-56.192 4.539-0.216 9.293-0.432 13.616-0.432 49.924 0 91.852 17.938 124.703 53.598 0.216 0.432 0.648 0.648 0.864 1.081 11.238 13.616 24.206 25.935 37.821 39.118 9.293 8.861 18.803 18.154 28.096 27.88 21.396 22.261 32.634 48.195 32.634 74.778 0 26.799-11.454 52.518-33.283 74.13l-118.651 119.083zM886.654 98.092c-0.216 0-0.216-0.216 0 0-8.429-9.077-17.074-17.29-26.367-26.367-14.048-13.4-28.312-27.448-41.712-43.224-21.828-23.341-47.547-34.363-81.262-34.363-3.242 0-6.7 0-9.942 0.216-64.188 4.106-123.838 29.176-168.575 50.573-122.325 59.217-229.738 143.289-318.996 249.837-73.698 88.826-122.974 170.953-155.608 259.131-20.099 53.814-27.448 95.742-24.206 135.293 2.161 25.286 11.887 46.25 29.825 64.188l73.698 73.698c10.59 9.942 21.828 15.345 32.851 15.345 13.616 0 24.638-8.213 31.554-15.129 0.216-0.216 0.432-0.432 0.648-0.648 13.183-12.319 25.719-25.070 38.902-38.686 6.7-6.916 13.616-13.832 20.532-20.964l59.001-59.001c22.909-22.909 22.909-44.089 0-66.998-6.268-6.268-12.319-12.535-18.587-18.587-18.154-18.587-35.444-35.876-54.247-52.734-0.432-0.432-0.864-0.648-1.081-1.081-18.587-18.587-15.129-36.741-11.238-49.060 0.216-0.648 0.432-1.297 0.648-1.945 15.345-37.173 36.957-72.185 69.807-113.896l0.216-0.216c59.65-73.482 122.541-130.754 191.917-174.627 8.861-5.619 17.938-10.158 26.583-14.48 7.78-3.89 15.129-7.564 21.396-11.454 0.864-0.432 1.729-1.081 2.593-1.513 7.348-3.674 14.264-5.403 21.396-5.403 17.938 0 29.176 11.238 32.851 14.912l73.914 73.914c7.348 7.348 19.019 16.209 32.634 16.209 13.4 0 24.422-8.429 31.122-15.777 0.216-0.216 0.216-0.216 0.432-0.432l119.083-119.083c22.261-22.044 22.261-44.737 0.216-67.646zM553.394 716.417c56.624-9.509 108.061-36.309 149.124-77.372s67.646-92.5 77.372-149.124c2.377-14.264 14.696-24.206 28.744-24.206 1.729 0 3.242 0.216 4.971 0.432 15.993 2.593 26.583 17.722 23.99 33.715-11.671 68.511-44.089 130.97-93.581 180.462s-111.951 81.91-180.462 93.581c-15.993 2.593-30.905-7.997-33.715-23.773s7.564-31.122 23.557-33.715zM1022.811 508.292c-19.235 112.816-72.401 215.474-154.095 297.168s-184.352 134.86-297.168 154.095c-15.777 2.81-30.689-7.997-33.499-23.773-2.593-15.993 7.997-30.905 23.99-33.715 100.713-17.074 192.565-64.837 265.614-137.67 73.049-73.049 120.596-164.901 137.67-265.614 2.377-14.264 14.696-24.206 28.744-24.206 1.729 0 3.242 0.216 4.971 0.432 15.777 2.377 26.583 17.506 23.773 33.283z" />
<glyph unicode="&#xe94d;" glyph-name="headset-outline" d="M512 896c-231.963 0-448-199.423-448-448 0-82.813 45.861-200.803 72.227-267.73 4.719-12.161 16.327-20.625 29.912-20.625 17.675 0 32.003 14.328 32.003 32.003 0 4.356-0.87 8.509-2.447 12.295l0.078-0.212c-25.634 65.072-67.773 188.562-67.773 244.27 0 210.943 189.283 384 384 384s384-173.057 384-384c0-55.091-44.091-183.087-67.844-244.449-1.45-3.521-2.292-7.608-2.292-11.893 0-17.675 14.328-32.003 32.003-32.003 13.648 0 25.301 8.544 29.902 20.575l0.074 0.219c24.247 62.638 72.156 184.122 72.156 267.551 0 248.577-216.037 448-448 448zM237.039 455.664c-12.318 0.93-24.994-1.669-36.332-8.254l-0.035-0.020-0.035-0.023-27.406-16.012c-42.441-24.85-61.701-73.485-63.109-124.871s13.775-108.59 44.703-162.965c30.941-54.398 72.281-96.426 117.113-120.977 44.827-24.548 96.605-31.898 139.047-7.070l27.609 16.133c29.778 17.735 40.135 56.915 23.008 87.047l-0.008 0.012-173.73 305.074c-10.747 19.027-30.293 30.376-50.824 31.926zM786.961 455.664c-20.531-1.55-40.077-12.899-50.824-31.926l-173.738-305.067c-17.128-30.131-6.77-69.312 23.008-87.047l27.594-16.124c42.44-24.835 94.214-17.484 139.035 7.066s86.152 66.572 117.129 120.957c30.976 54.382 46.167 111.595 44.746 162.984s-20.708 100.016-63.148 124.852l-0.008 0.004-27.461 16.047c-11.338 6.585-24.014 9.184-36.332 8.254zM232.398 391.805l173.563-304.781c0.257-0.444 0.338-0.161-0.113-0.43l-27.168-15.875c-18.015-10.542-44.011-9.562-76.004 7.957s-66.52 51.302-92.219 96.484c-25.712 45.205-37.379 92.501-36.363 129.57s13.457 60.844 31.477 71.395zM791.602 391.805l26.852-15.691c18.011-10.549 30.456-34.321 31.48-71.371 1.024-37.061-10.635-84.345-36.379-129.543-25.743-45.195-60.282-78.985-92.266-96.504s-57.949-18.502-75.969-7.957l-0.008 0.004-27.16 15.875c-0.439 0.257-0.368-0.014-0.113 0.426 0.002 0.004-0.002 0 0 0.004z" />
<glyph unicode="&#xe94e;" glyph-name="settings-outline" d="M426.461 908c-0.24 0-0.479-0.003-0.717-0.008l0.037 0.001c-25.678-0.544-47.781-19.524-52.203-44.824-0.035-0.161-0.094-0.52-0.147-0.881l-0.021-0.174-13.453-95.766c-16.399-7.955-32.176-17.136-47.188-27.473-0.148-0.101-0.195-0.134-0.242-0.168l0.098 0.066c-0.092-0.064-0.103-0.065-0.207-0.023l-89.683 36.113c0.022 0.001-0.17 0.078-0.363 0.152l-0.219 0.074c-24.171 9.191-51.985-0.523-65.176-22.766 0.019 0.042-0.042-0.060-0.102-0.163l-0.082-0.15-85.512-147.949c-0.004-0.006-0.004-0.014-0.008-0.020-12.924-22.293-7.913-51.2 11.766-67.84 0.24-0.204 0.531-0.442 0.826-0.675l0.068-0.052 76.379-60c-0.035 0.029-0.028 0.023-0.020 0.016l0.043-0.036 0.016 0.191c-0.816-8.996-1.293-18.175-1.293-27.59 0-9.466 0.5-18.706 1.281-27.75 0.017-0.212 0.025-0.301 0.034-0.39l-0.010 0.132c0.007-0.073 0.018-0.040-0.039-0.086l-76.285-59.895c-0.276-0.218-0.485-0.388-0.691-0.56l0.050 0.041c-20.025-16.573-25.229-45.769-12.16-68.238l85.496-147.926c0.146-0.263 0.211-0.373 0.276-0.482l-0.081 0.146c13.207-22.224 41.020-31.915 65.18-22.715 0.403 0.147 0.588 0.221 0.772 0.296l-0.213-0.078 89.719 36.176c0.018-0.014 0.040-0.022 0.059-0.035v-0.004c14.997-10.478 30.81-19.739 47.285-27.691-0.138 0.058-0.087 0.034-0.036 0.009l0.192-0.083c0.076-0.036 0.066-0.022 0.078-0.105l-0.012 0.105 13.438-95.641c0.119-0.856 0.239-1.532 0.381-2.201l-0.037 0.209c5.077-24.685 26.973-42.853 52.172-43.289 0.151-0.003 0.329-0.004 0.508-0.004 0.016 0 0.033 0 0.049 0h171.075c0.241 0 0.479 0.003 0.717 0.009l-0.037-0.001c25.678 0.544 47.781 19.524 52.203 44.824 0.035 0.161 0.094 0.52 0.147 0.881l0.021 0.174 13.453 95.766c16.399 7.955 32.176 17.136 47.188 27.473 0.148 0.101 0.195 0.134 0.242 0.168l-0.098-0.066c0.092 0.064 0.103 0.065 0.207 0.023l89.684-36.113c-0.022-0.001 0.17-0.078 0.363-0.152l0.219-0.074c24.171-9.191 51.985 0.523 65.176 22.766-0.019-0.042 0.042 0.060 0.102 0.163l0.082 0.15 85.508 147.949c13.038 22.461 7.843 51.625-12.152 68.199-0.165 0.139-0.384 0.317-0.605 0.492l-0.067 0.051-76.469 59.977c0.776 9.033 1.306 18.086 1.359 27.156 0 0.028 0 0.061 0 0.094s0 0.066 0 0.099v-0.005c0 9.466-0.498 18.635-1.203 27.484-0.017 0.243-0.028 0.378-0.040 0.513l0.009-0.122c-0.006 0.067-0.010 0.052 0.031 0.082l76.383 59.973c0.276 0.218 0.485 0.388 0.691 0.56l-0.050-0.041c20.025 16.573 25.229 45.769 12.16 68.238l-85.496 147.926c-0.146 0.263-0.211 0.373-0.276 0.482l0.081-0.146c-13.207 22.225-41.020 31.916-65.18 22.716-0.403-0.147-0.588-0.221-0.772-0.296l0.213 0.078-89.719-36.176c-0.018 0.014-0.040 0.022-0.059 0.035-0.001 0 0.001 0.004 0 0.004-14.997 10.478-30.81 19.739-47.285 27.691 0.138-0.058 0.087-0.034 0.036-0.009l-0.192 0.083c-0.076 0.036-0.066 0.022-0.078 0.105l0.012-0.105-13.438 95.641c-0.119 0.856-0.239 1.532-0.381 2.201l0.037-0.209c-5.078 24.685-26.974 42.853-52.172 43.289-0.15 0.003-0.326 0.004-0.503 0.004-0.018 0-0.037 0-0.055 0h0.003zM435.496 844h153.113l12.063-85.832c0.027-0.213 0.033-0.25 0.038-0.287l-0.022 0.178c3.054-21.207 16.576-39.566 35.922-48.773l-0.16 0.078c13.415-6.475 26.291-14.017 38.5-22.551-0.076 0.052-0.058 0.039-0.041 0.026l0.095-0.065c17.675-12.298 40.466-14.877 60.441-6.84 0.001 0 0.001 0 0.002 0s0.001 0 0.002 0v0l81.047 32.625 76.41-132.203-68.887-54.086c-0.105-0.073-0.119-0.084-0.133-0.094l0.090 0.063c-17.029-13.416-26.149-34.647-24.16-56.234l-0.035 0.395c0.612-7.679 0.993-15.121 0.996-22.309-0.077-12.438-0.99-24.857-2.738-37.172-0.202-1.351-0.317-2.91-0.317-4.495 0-10.19 4.763-19.268 12.183-25.129l0.067-0.051 82.871-65.004-76.418-132.211-81.055 32.637c0.172-0.063 0.135-0.047 0.098-0.032l-0.211 0.079c-20.014 7.969-42.799 5.34-60.473-6.977l0.145 0.102c-12.372-8.519-25.37-16.088-38.887-22.641-0.187-0.089-0.198-0.095-0.208-0.1l0.177 0.084c-19.12-9.293-32.412-27.589-35.344-48.645 0-0.002-0.004-0.004-0.004-0.008l-12.161-86.527h-153.113l-12.063 85.832c-0.027 0.213-0.033 0.25-0.038 0.287l0.022-0.178c-3.054 21.207-16.576 39.566-35.922 48.773l0.16-0.078c-13.415 6.475-26.291 14.017-38.5 22.551 0.076-0.052 0.058-0.039 0.041-0.026l-0.095 0.065c-17.675 12.298-40.466 14.876-60.441 6.84-0.001 0-0.001 0-0.002 0s-0.001 0-0.002 0v0l-81.047-32.625-76.41 132.203 68.887 54.086c0.119 0.090 0.163 0.124 0.208 0.159l-0.071-0.053c16.955 13.459 25.996 34.683 23.961 56.234l0.023-0.258c-0.659 7.636-1.043 15.032-1.043 22.246 0 7.266 0.367 14.488 1.031 21.813-0.003-0.057 0.003 0.009 0.008 0.075l0.008 0.116c1.816 21.452-7.34 42.473-24.281 55.758l-68.664 53.945 76.414 132.207 81.055-32.637c-0.172 0.063-0.135 0.047-0.098 0.032l0.211-0.079c20.014-7.969 42.799-5.34 60.473 6.977l-0.145-0.102c12.372 8.519 25.37 16.088 38.887 22.641 0.187 0.089 0.198 0.095 0.208 0.1l-0.177-0.084c19.12 9.293 32.412 27.589 35.344 48.645l0.004 0.008zM502.738 607.73c-57.697-3.364-110.117-37.929-135.367-91.301-28.857-60.996-16.213-133.846 31.5-181.559s120.563-60.357 181.559-31.5c60.996 28.858 97.429 93.203 90.797 160.355-0.027 0.201-0.030 0.218-0.033 0.235l0.025-0.185c-7.598 75.649-67.792 135.843-143.441 143.441 0.167-0.022 0.15-0.019 0.133-0.016l-0.184 0.024c-8.394 0.829-16.746 0.985-24.988 0.504zM506.395 543.848c4.944 0.282 9.957 0.184 15.004-0.313 45.734-4.601 81.536-40.403 86.137-86.137 3.981-40.457-17.729-78.79-54.477-96.176-36.758-17.39-80.176-9.855-108.934 18.902s-36.293 72.176-18.902 108.934c15.217 32.163 46.482 52.808 81.172 54.789z" />
<glyph unicode="&#xe94f;" glyph-name="settings" d="M960.496 544.944l-82.129 18.224c-6.4 20.48-14.784 40.080-24.4 58.927l44.431 74.032c16.592 26.512 24.976 65.52 0 90.512l-45.28 45.248c-24.976 24.992-67.151 20.496-92.623 2.832l-72.032-45.887c-18.689 9.696-38.225 18-58.529 24.56l-18.431 83.12c-5.504 30.479-32.16 63.488-67.504 63.488h-64c-35.344 0-57.008-33.504-64-64l-20.528-82.128c-21.68-6.912-42.496-15.744-62.336-26.208l-73.84 47.024c-25.456 17.664-67.648 22.16-92.624-2.832l-45.264-45.248c-24.992-25.008-16.608-64 0-90.512l46.752-77.92c-8.767-17.664-16.544-35.936-22.544-55.024l-82.112-18.224c-30.496-5.488-63.503-32.144-63.503-67.488v-64c0-35.344 33.504-57.008 64-64l83.152-20.784c5.745-17.632 12.928-34.56 21.056-50.976l-46.8-78c-16.591-26.496-24.975-65.504 0-90.496l45.28-45.248c24.976-25.008 67.152-20.496 92.624-2.847l74 47.152c19.952-10.528 40.88-19.44 62.704-26.337l20.479-81.904c7.008-30.496 28.656-64 64-64h64c35.344 0 62 33.007 67.504 63.504l18.464 83.343c20.096 6.496 39.376 14.689 57.84 24.257l72.192-46c25.472-17.664 67.664-22.16 92.624 2.848l45.281 45.248c24.976 25.008 16.592 64 0 90.496l-44.463 74.128c8.944 17.568 16.688 35.84 22.912 54.848l83.151 20.768c30.496 7.008 64 28.656 64 64v64c0 35.344-32.992 62-63.504 67.504zM960.031 417.952c-2.72-1.952-7.842-4.635-14.338-6.139l-118.656-29.631-11.008-33.632c-4.975-15.153-11.407-30.529-19.119-45.712l-16.064-31.569 62.688-104.528c4-6.4 5.872-12.127 6.432-15.503l-42.096-42.033c-4.064 1.28-8.688 2.945-10.912 4.464l-105.344 67.184-32.752-16.945c-15.776-8.192-31.969-14.976-48.097-20.192l-34.88-11.28-26.368-119.12c-1.216-6.368-4.624-11.504-6.96-13.344h-57.6c-1.951 2.72-4.623 7.84-6.112 14.32l-29.455 117.808-34.095 10.817c-17.569 5.536-35.088 12.912-52.144 21.904l-32.912 17.376-105.36-67.152c-4.304-2.912-8.912-4.56-13.088-4.56l-41.968 40.847c0.56 3.311 2.304 8.783 5.792 14.367l65.456 109.056-15.568 31.344c-7.264 14.784-13.024 28.656-17.504 42.4l-10.992 33.664-117.489 29.377c-7.392 1.68-12.736 4.432-15.52 6.4v59.504c0.032-0.016 0.080-0.032 0.145-0.032 1.072 0 6.336 3.745 10.72 4.544l120.72 26.737 11.087 35.28c4.512 14.368 10.672 29.344 18.816 45.775l15.568 31.36-64.767 107.92c-4.016 6.432-5.872 12.16-6.432 15.52l42.080 42.065c4.080-1.312 8.672-2.96 10.88-4.48l107.312-68.4 32.88 17.344c16.88 8.895 34.336 16.239 51.904 21.823l34.016 10.832 29.183 116.767c1.697 7.391 4.416 12.735 6.4 15.52h59.49c-0.433-0.657 3.68-6.24 4.527-10.865l26.88-121.408 34.848-11.264c16.336-5.28 32.752-12.16 48.72-20.448l32.752-17.008 103.152 65.712c4.32 2.945 8.944 4.576 13.088 4.576l42-40.816c-0.56-3.328-2.32-8.816-5.808-14.416l-63.344-105.488 16.16-31.616c8.72-17.056 15.376-33.056 20.32-48.928l11.056-35.344 118.289-26.256c7.153-1.328 12.721-5.456 13.905-7.696zM512.43 640.326c-106.272 0-192.736-86.288-192.736-192.32 0-106.016 86.464-192.304 192.736-192.304s192.736 86.288 192.736 192.304c0 106.032-86.464 192.32-192.736 192.32zM511.998 320.006c-70.576 0-128 57.424-128 128 0 70.592 57.424 128 128 128 70.592 0 128-57.408 128-128 0-70.576-57.424-128-128-128z" />
<glyph unicode="&#xe950;" glyph-name="shipping-fast-solid" d="M0 768v-64h608v-480h-197c-14.25 55-63.75 96-123 96s-108.75-41-123-96h-37v160h-64v-224h101c14.25-55 63.75-96 123-96s108.75 41 123 96h266c14.25-55 63.75-96 123-96s108.75 41 123 96h101v261l-2 5-64 192-7 22h-279v128zM32 640v-64h288v64zM672 576h233l55-164v-188h-37c-14.25 55-63.75 96-123 96s-108.75-41-123-96h-5zM64 512v-64h192v64zM288 256c35.75 0 64-28.25 64-64s-28.25-64-64-64c-35.75 0-64 28.25-64 64s28.25 64 64 64zM800 256c35.75 0 64-28.25 64-64s-28.25-64-64-64c-35.75 0-64 28.25-64 64s28.25 64 64 64z" />
<glyph unicode="&#xe951;" glyph-name="truck-solid" d="M32 832v-672h101c14.25-55 63.75-96 123-96s108.75 41 123 96h266c14.25-55 63.75-96 123-96s108.75 41 123 96h101v333l-9 10-192 192-10 9h-173v128zM96 768h448v-544h-165c-14.25 55-63.75 96-123 96s-108.75-41-123-96h-37zM608 640h146l174-174v-242h-37c-14.25 55-63.75 96-123 96s-108.75-41-123-96h-37zM256 256c35.75 0 64-28.25 64-64s-28.25-64-64-64c-35.75 0-64 28.25-64 64s28.25 64 64 64zM768 256c35.75 0 64-28.25 64-64s-28.25-64-64-64c-35.75 0-64 28.25-64 64s28.25 64 64 64z" />
<glyph unicode="&#xe952;" glyph-name="ship-solid" d="M480 864v-64h-128v-96h-128v-189l-27-6v-1c-57.75-12.5-86.375-79.375-56-130l51-86v-159c-25.875 7.25-44 20-44 20l-40-50c0 0 49.375-39 117-39 46.75 0 76.5 15.5 95 27 18.625-11.375 49.875-27 97-27 46.75 0 76.5 15.5 95 27 18.625-11.375 49.875-27 97-27 46.75 0 76.5 15.5 95 27 18.625-11.375 49.875-27 97-27 67.625 0 115 39 115 39l-40 50c0 0-17.375-13.875-44-21v160l51 86c30.375 50.625 1.75 117.5-56 130l-27 6v190h-128v96h-128v64zM416 736h192v-96h128v-112l-217 47-7 1-7-1-217-47v112h128zM512 510l301-64c16.75-3.625 24.875-20.375 16-35l-56-94-5-7v-177c-25.875 7.25-44 20-44 20l-20 16-20-16c0 0-32.125-25-75-25s-77 25-77 25l-20 16-20-16c0 0-32.125-25-75-25s-77 25-77 25l-20 16-20-16c0 0-17.375-13.875-44-21v178l-5 7-56 94c-8.875 14.75-0.75 31.375 16 35zM352 448c-19.25 0-32-22.375-32-48s12.75-48 32-48c19.25 0 32 22.375 32 48s-12.75 48-32 48zM672 448c-19.25 0-32-22.375-32-48s12.75-48 32-48c19.25 0 32 22.375 32 48s-12.75 48-32 48z" />
<glyph unicode="&#xe953;" glyph-name="boat-outline" d="M511.988 640c-7.994 0-15.987-1.205-23.703-3.613l-1.172-0.367-372.824-148.672c-16.321-5.092-34.549-15.468-43.637-37.316-5.365-12.898-9.352-33.314-2.75-52.746l0.23-0.68 93.465-239.332c7.588-18.745 26.69-30.629 46.852-29.184 57.049 3.656 106.389 29.94 145.031 63.414 41.784-36.147 96.126-63.504 158.52-63.504 62.381 0 116.529 27.399 158.238 63.574 38.632-33.49 87.965-59.827 145.031-63.484 20.102-1.45 39.163 10.357 46.793 29.023l0.086 0.215 93.254 237.965c8.803 21.252 3.942 40.589-1.988 54.875l-0.027 0.062-0.023 0.066c-9.047 21.531-27.289 31.776-42.688 36.93l1.676-0.613-376.656 149.773c-7.716 2.408-15.713 3.613-23.707 3.613zM511.988 576c1.423 0 2.839-0.253 4.223-0.645l374.152-148.82c4.184-1.4 4.803-3.012 4.004-1.145 1.824-4.618 1.047-7.69 1.91-5.605l-0.117-0.281-88.625-226.129c-39.187 5.762-75.497 26.944-104.66 54.832l-0.211 0.203c-17.991 16.892-46.818 16.892-64.809 0l-0.125-0.121-0.129-0.121c-34.273-32.89-77.9-56.168-125.602-56.168s-91.708 23.344-125.93 56.113l-0.109 0.105-0.109 0.102c-17.986 16.898-46.819 16.898-64.805 0l-0.195-0.188c-29.151-27.86-65.448-48.999-104.648-54.758l-87.785 224.793c-0.991 2.722-1.091 1.465 1.328 7.281-1.168-2.808-0.073-0.343 3.605 0.805l1.172 0.363 373.242 148.738c1.385 0.392 2.799 0.645 4.223 0.645zM681.918 201.992l-0.254-0.242c-0.016-0.016-0.038-0.020-0.055-0.035 0.099 0.095 0.21 0.183 0.309 0.277zM658.645 201.953c0.084-0.080 0.178-0.154 0.262-0.234-0.014 0.014-0.036 0.018-0.051 0.031zM341.809 201.887c0.084-0.081 0.181-0.154 0.266-0.234-0.014 0.012-0.033 0.014-0.047 0.027zM365.070 201.867l-0.199-0.187c-0.010-0.010-0.025-0.010-0.035-0.020 0.075 0.071 0.16 0.136 0.234 0.207zM687.563 128.797c-4.74 0.563-9.674-0.473-13.926-3.215-100.349-64.639-222.444-64.68-322.813-0.102h-0.004c-8.58 5.538-19.91 4.162-26.91-3.273-21.468-22.483-70.265-66.48-124.582-95.297-4.7-2.38-7.846-7.011-8.324-12.258v-0.012c-0.746-9.441 7.7-17.067 17.016-15.363h0.008l0.008 0.004c41.865 8.393 82.244 27.439 120.672 47.754 4.711 2.481 10.33 2.522 15.078 0.113 105.766-53.816 230.889-53.83 336.668-0.039 4.807 2.436 10.492 2.394 15.262-0.113v-0.004c38.223-20.012 78.539-39.238 120.266-47.691l0.008-0.004h0.008c8.95-1.667 17.222 5.315 17.082 14.418l-0.012 0.77-0.176 0.043c-0.286 5.041-3.067 9.631-7.531 12.070h-0.004l-0.004 0.004c-54.003 29.016-103.35 73.514-125.008 95.809l-0.008 0.008c-3.491 3.657-8.037 5.817-12.773 6.379zM687.324 126.816c4.289-0.509 8.405-2.466 11.57-5.785l0.008-0.008c21.785-22.427 71.192-67.002 125.504-96.184 4.066-2.224 6.592-6.486 6.594-11.121v-0.422c-0.129-7.669-7.015-13.442-14.621-12.035-0.001 0-0.002 0-0.004 0-41.392 8.387-81.555 27.516-119.73 47.504-5.342 2.807-11.715 2.853-17.098 0.125-105.211-53.502-229.654-53.488-334.852 0.039h-0.004v0.004c-5.326 2.703-11.634 2.654-16.918-0.129-38.371-20.285-78.591-39.235-120.125-47.563-8.064-1.467-15.29 5.055-14.652 13.227v0.004c0.417 4.562 3.148 8.587 7.234 10.656l0.012 0.004 0.008 0.004c54.633 28.981 103.501 73.055 125.113 95.691l0.004 0.004v0.004c6.348 6.743 16.591 7.989 24.371 2.965 100.991-64.98 224.014-64.942 324.984 0.098 3.854 2.486 8.313 3.427 12.602 2.918zM431.906 896c-43.706-0.127-79.779-36.2-79.906-79.906 0-0.014 0-0.030 0-0.047s0-0.033 0-0.049v0.003-16h-64c-0.014 0-0.030 0-0.047 0s-0.033 0-0.049 0h0.003c-70.184-0.204-127.702-57.722-127.906-127.906 0-0.014 0-0.030 0-0.047s0-0.033 0-0.049v0.003-184c-0.002-0.135-0.003-0.293-0.003-0.453 0-17.675 14.328-32.003 32.003-32.003s32.003 14.328 32.003 32.003c0 0.159-0.001 0.318-0.003 0.477v-0.024 183.906c0.104 35.727 28.367 63.99 64.094 64.094h90.684c1.559-0.269 3.354-0.423 5.186-0.423s3.627 0.154 5.374 0.449l-0.188-0.026h245.629c1.559-0.269 3.354-0.423 5.186-0.423s3.627 0.154 5.374 0.449l-0.188-0.026h90.758c35.727-0.104 63.99-28.367 64.094-64.094v-177.906c-0.002-0.135-0.003-0.293-0.003-0.453 0-17.675 14.328-32.003 32.003-32.003s32.003 14.328 32.003 32.003c0 0.159-0.001 0.318-0.003 0.477v-0.024 178c0 0.014 0 0.030 0 0.047s0 0.033 0 0.049v-0.003c-0.204 70.184-57.722 127.702-127.906 127.906-0.014 0-0.030 0-0.047 0s-0.033 0-0.049 0h-63.997v16c0 0.014 0 0.030 0 0.047s0 0.033 0 0.049v-0.003c-0.127 43.706-36.2 79.779-79.906 79.906-0.014 0-0.030 0-0.047 0s-0.033 0-0.049 0h-159.997c-0.014 0-0.030 0-0.047 0s-0.033 0-0.049 0h0.003zM432.094 832h159.812c9.249-0.027 16.067-6.844 16.094-16.094v-15.906h-192v15.906c0.027 9.249 6.844 16.067 16.094 16.094zM511.52 625.254c-17.467-0.271-31.523-14.494-31.523-32 0-0.159 0.001-0.319 0.003-0.478v0.024-425.699c-0.002-0.135-0.003-0.293-0.003-0.453 0-17.675 14.328-32.003 32.003-32.003s32.003 14.328 32.003 32.003c0 0.159-0.001 0.318-0.003 0.477v-0.024 425.699c0.002 0.135 0.003 0.294 0.003 0.454 0 17.675-14.328 32.003-32.003 32.003-0.169 0-0.338-0.001-0.506-0.004h0.025z" />
<glyph unicode="&#xe954;" glyph-name="rocket" d="M209.68 76.736c-20.112-41.807-32.802-69.666-144.689-73.73 3.216 107.968 23.792 119.552 64.992 140.080 17.296 8.624 38.832 19.344 62.113 37.248l-38.96 49.744c-18.4-14.128-35.329-21.568-51.697-29.712-68.639-34.224-100.989-67.935-100.989-228.655l0.543-32.704 31.456 0.704c169.632 0 201.328 38.32 233.104 104.32 6.96 14.464 10.832 24.24 22.56 43.729l-47.456 43.104c-14.224-19.408-23.104-37.872-30.976-54.128zM704.959 771.343c-70.768 0-128.352-57.583-128.352-128.335 0-70.784 57.6-128.353 128.352-128.353s128.336 57.584 128.336 128.352c0 70.752-57.6 128.336-128.336 128.336zM704.959 578.928c-35.328 0-64.080 28.752-64.080 64.080 0 35.313 28.752 64.080 64.080 64.080s64.080-28.767 64.080-64.080c-0.016-35.344-28.752-64.080-64.080-64.080zM1023.78 930.688c-0.976 15.968-13.63 28.771-29.598 29.955 0 0-179.088 13.056-351.376-51.28-62.944-23.504-114.752-60.737-163.104-117.137-40.32-47.025-80.385-132.032-115.745-202.608-13.664-27.248-26.72-53.313-37.792-73.217h-178.015c-9.508-0.002-18.048-4.151-23.908-10.736l-0.028-0.032-117.297-127.136c-5.003-5.62-8.059-13.068-8.059-21.23 0-3.493 0.56-6.856 1.595-10.003l-0.064 0.226c3.44-10.785 12.32-18.945 23.329-21.44l190.944-43.665c13.007-16.064 34.687-40.097 69.376-78.593l72.335-80.192 38.945-164.72c2.648-10.934 10.649-19.539 21.005-22.991l0.226-0.065c3.233-1.024 6.576-1.568 9.904-1.568 0.005 0 0.010 0 0.016 0 7.971 0 15.261 2.919 20.858 7.747l-0.041-0.035 118.56 117.936c6.862 5.899 11.182 14.589 11.184 24.288v0 165.12c15.936 9.904 44.191 25.152 70.783 40.032 72.464 40.496 180.624 90.912 225.472 130.784 63.153 56.128 86.16 97.28 108.752 158.112 53.712 144.688 42.288 344.031 41.744 352.447zM922.001 600.531c-19.712-53.072-37.568-84.83-91.248-132.558-39.664-35.232-148.128-85.824-214.192-122.769-49.312-27.568-78.848-43.664-91.792-54.256-7.201-5.904-11.76-14.8-11.76-24.762 0-0.008 0-0.016 0-0.023v0.001-167.248l-67.52-74.193-28.752 121.6c-1.324 5.471-3.901 10.214-7.417 14.091l0.024-0.027c-58.847 65.216-147.743 163.808-154.56 171.632-4.417 5.332-10.454 9.184-17.351 10.805l-0.217 0.043-146.592 33.536 71.904 76h182.032c0.002 0 0.004 0 0.006 0 11.472 0 21.534 6.039 27.179 15.112l0.079 0.136c14.080 22.928 30.416 55.536 49.344 93.296 32.048 63.952 71.92 148.544 107.12 189.632 41.584 48.528 83.824 79.009 136.896 98.848 118.096 44.128 239.968 48.768 295.68 48.353 1.040-59.008-1.184-195.824-38.863-297.248z" />
<glyph unicode="&#xe955;" glyph-name="rocket-outline" d="M869.18 896.113c-59.278-0.514-129.19-19.296-201.867-48.379-96.866-38.762-196.633-97.826-269.086-170.195-0.006-0.006-0.010-0.014-0.016-0.020-21.394-21.22-41.108-44.040-59.195-68.121-39.703 1.772-80.018-2.277-116.992-18.406-0.218-0.096-0.245-0.109-0.272-0.122l0.19 0.083c-117.679-51.742-148.36-180.219-157.257-234.23 0.016 0.147 0.013 0.127 0.011 0.107l-0.018-0.166c-5.161-31.686 22.509-61.049 54.445-57.777 0.214 0.019 0.293 0.027 0.372 0.036l-0.142-0.012 128.648 14.125c0.146-1.471 0.216-2.949 0.379-4.418 1.611-15.763 8.655-30.497 19.926-41.637l62.52-62.516c11.154-11.284 25.908-18.331 41.691-19.93 1.384-0.153 2.775-0.221 4.16-0.359l-14.105-128.523c0.002 0.047-0.007-0.047-0.017-0.141l-0.011-0.133c-3.224-31.889 26.070-59.495 57.711-54.391h0.012c54.233 8.715 182.879 39.373 234.355 157.113-0.077-0.186-0.072-0.174-0.066-0.163l0.082 0.198c16.098 36.944 20.167 77.062 18.547 116.52 24.165 18.083 47.064 37.808 68.352 59.227 72.567 72.197 131.729 170.565 170.504 266.766 38.708 96.034 58.743 188.359 42.844 258.418-3.26 15.334-15.178 27.574-30.434 31.207-17.060 4.155-35.574 6.011-55.27 5.84zM870.938 831.090c8.748 0.258 16.509-0.091 23.648-0.781 4.749-47.105-9.594-125.567-41.906-205.734-35.939-89.164-92.212-181.607-156.363-245.402-0.046-0.046-0.091-0.091-0.135-0.135l-0.002-0.002c-22.834-22.979-47.633-43.919-74.113-62.578-8.25-5.867-13.567-15.392-13.567-26.159 0-0.966 0.043-1.921 0.127-2.865l-0.009 0.122c3.304-38.369-0.054-74.941-12.652-103.852-32.518-74.324-117.092-104.854-167.688-116.004l15.691 142.969c0.122 1.047 0.191 2.261 0.191 3.491 0 17.564-14.149 31.823-31.67 32.002h-0.017c-11.075 0.108-22.137 0.776-33.145 2.004 0.017 0.001-0.107 0.014-0.231 0.025l-0.129 0.010c-1.002 0.1-1.925 0.541-2.633 1.258-0.044 0.044-0.086 0.086-0.128 0.128l-62.782 62.782c-0.045 0.045-0.088 0.088-0.131 0.131l-0.002 0.001c-0.716 0.708-1.153 1.623-1.254 2.625-0.023 0.252-0.036 0.367-0.049 0.483l0.014-0.147c-1.233 11.076-1.902 22.207-2.004 33.352-0.168 17.547-14.431 31.707-32.002 31.707-1.23 0-2.443-0.069-3.637-0.204l0.146 0.013-143.070-15.707c11.305 50.668 41.829 134.985 116.211 167.723 28.808 12.557 65.575 15.926 104.047 12.445 0.863-0.083 1.867-0.13 2.881-0.13 10.747 0 20.257 5.297 26.061 13.423l0.066 0.097c18.68 26.408 39.623 51.14 62.59 73.918 0.029 0.029 0.057 0.057 0.085 0.085l0.001 0.001c63.8 63.753 157.739 120.13 247.711 156.133 67.479 27.002 133.858 41.416 179.848 42.773zM657.699 710.449c-47.393 0-90.33-28.689-108.465-72.477s-8.056-94.432 25.461-127.941c45.553-45.621 120.455-45.621 166.008 0 33.517 33.509 43.596 84.154 25.461 127.941s-61.072 72.477-108.465 72.477zM657.699 646.449c21.693 0 41.037-12.926 49.336-32.965s3.762-42.859-11.578-58.195c-0.009-0.009-0.018-0.018-0.027-0.027v0c-21.094-21.138-54.364-21.138-75.457 0-0.009 0.009-0.018 0.018-0.027 0.027v0c-15.34 15.336-19.881 38.156-11.582 58.195s27.643 32.965 49.336 32.965zM220.805 288.039c-0.323 0.012-0.701 0.018-1.082 0.018-1.531 0-3.036-0.107-4.509-0.315l0.169 0.020c-27.012-3.316-52.157-15.566-71.414-34.797-0.019-0.019-0.037-0.037-0.054-0.054v0c-31.207-31.313-35.99-75.275-41.527-114.543s-6.375-73.551-6.375-73.551c-0.007-0.242-0.010-0.526-0.010-0.812 0-17.675 14.328-32.003 32.003-32.003 0.285 0 0.57 0.004 0.854 0.011l-0.042-0.001c0 0 34.304 0.84 73.582 6.383 39.266 5.541 83.221 10.303 114.504 41.578 19.331 19.26 31.622 44.484 34.871 71.578 0.174 1.253 0.273 2.701 0.273 4.173 0 17.675-14.328 32.003-32.003 32.003-16.46 0-30.018-12.426-31.804-28.41l-0.013-0.145c-1.539-12.832-7.35-24.756-16.508-33.875 0.001 0.002-0.015-0.016-0.032-0.034l-0.019-0.021c-3.976-3.978-43.154-18.529-78.211-23.477-11.268-1.59-21.618-2.64-31.184-3.488 0.848 9.557 1.901 19.898 3.488 31.156 4.941 35.037 19.436 74.206 23.477 78.281 9.165 9.133 21.098 14.947 33.941 16.523 16.124 1.803 28.546 15.359 28.546 31.816 0 17.294-13.718 31.384-30.866 31.983l-0.055 0.002z" />
<glyph unicode="&#xe956;" glyph-name="location-pin" d="M515.664 960.368c-209.904 0-387.664-178.768-387.664-390.544 0-221.76 206.032-448.544 344.624-607.936 0.528-0.64 22.929-25.52 50.528-25.52h2.449c27.6 0 49.84 24.88 50.399 25.52 130.064 149.52 320 396.048 320 607.936 0 211.776-138.656 390.544-380.336 390.544zM528.496 4.816c-1.12-1.12-2.753-2.369-4.193-3.409-1.472 1.008-3.072 2.288-4.255 3.408l-16.737 19.248c-131.391 150.737-311.311 357.152-311.311 545.761 0 177.008 148.224 326.56 323.664 326.56 218.528 0 316.336-164 316.336-326.56 0-143.184-102.128-333.296-303.504-565.008zM513.119 766.592c-106.032 0-192-85.968-192-192s85.968-192 192-192 192 85.968 192 192-85.968 192-192 192zM513.119 446.592c-70.576 0-129.473 58.816-129.473 129.408 0 70.576 57.424 128 128 128 70.624 0 128-57.424 128-128 0.032-70.592-55.903-129.408-126.527-129.408z" />
<glyph unicode="&#xe957;" glyph-name="map-marked-alt-solid" d="M704 864c-105.625 0-192-86.375-192-192 0-31.75 12.25-64.125 28-100s35.625-73.875 56-109c40.75-70.25 82-129 82-129l26-38 26 38c0 0 41.25 58.75 82 129 20.375 35.125 40.25 73.125 56 109s28 68.25 28 100c0 105.625-86.375 192-192 192zM383 802l-255-109v-614l257 111 256-96 255 109v279c-20.375-39.125-43-76.625-64-110v-127l-160-68v52l-47 68c-5 7.25-10.875 15.875-17 25v-148l-192 72v476l35-13c3.125 21.625 8.75 42.5 17 62zM704 800c71 0 128-57 128-128 0-12.375-7.75-41.625-22-74s-34.375-69.125-54-103c-26.125-45-37.375-61-52-83-14.625 22-25.875 38-52 83-19.625 33.875-39.75 70.625-54 103s-22 61.625-22 74c0 71 57 128 128 128zM352 720v-475l-160-68v474zM704 720c-26.5 0-48-21.5-48-48s21.5-48 48-48c26.5 0 48 21.5 48 48s-21.5 48-48 48z" />
<glyph unicode="&#xe958;" glyph-name="location-outline" d="M512 896c-175.474 0-320-136.581-320-306 0-98.77 50.908-212.951 108.82-317.527 57.844-104.453 124.008-197.911 159.809-246.285 0.004-0.004 0.008-0.008 0.012-0.012 24.835-34.099 77.877-34.1 102.715-0.004 35.8 48.351 101.975 141.781 159.824 246.23 57.913 104.566 108.82 218.767 108.82 317.598 0 169.419-144.526 306-320 306zM512 832c142.526 0 256-108.979 256-242 0-75.309-45.093-186-100.805-286.59-55.615-100.416-120.423-192.082-155.195-239.051-34.773 46.991-99.58 138.689-155.195 239.117-55.713 100.604-100.805 211.294-100.805 286.523 0 133.021 113.474 242 256 242zM512 704c-70.313 0-128-57.687-128-128s57.687-128 128-128c70.313 0 128 57.687 128 128s-57.687 128-128 128zM512 640c35.725 0 64-28.275 64-64s-28.275-64-64-64c-35.725 0-64 28.275-64 64s28.275 64 64 64z" />
<glyph unicode="&#xe959;" glyph-name="mail-outline" d="M176 800c-61.494 0-112-50.506-112-112v-480c0-61.494 50.506-112 112-112h672c61.494 0 112 50.506 112 112v480c0 61.494-50.506 112-112 112zM176 736h672c27.146 0 48-20.854 48-48v-480c0-27.146-20.854-48-48-48h-672c-27.146 0-48 20.854-48 48v480c0 27.146 20.854 48 48 48zM800.188 672.281c-7.537-0.042-14.449-2.683-19.893-7.071l0.061 0.048-268.355-208.719-268.355 208.719c-5.444 4.424-12.462 7.103-20.104 7.103-17.675 0-32.003-14.328-32.003-32.003 0-10.442 5.001-19.715 12.738-25.557l0.081-0.059 288-224c5.364-4.202 12.208-6.739 19.645-6.739s14.281 2.536 19.715 6.792l-0.070-0.053 288 224c7.757 5.903 12.713 15.141 12.713 25.536 0 17.675-14.328 32.003-32.003 32.003-0.059 0-0.117 0-0.176 0h0.009z" />
<glyph unicode="&#xe95a;" glyph-name="mail-open-outline" d="M512 826.32c-12.297 0-24.596-2.787-35.898-8.363-0.001 0-0.001 0-0.002 0s-0.001 0-0.002 0v0l-349.379-172.441c-38.199-18.716-62.57-57.647-62.719-100.184 0-0.017 0-0.037 0-0.057s0-0.040 0-0.060v0.003-369.219c0-61.699 51.207-112 113.039-112h670c61.832 0 113.039 50.301 113.039 112v369.219c0 0.019 0 0.042 0 0.065s0 0.045 0 0.068v-0.004c-0.17 42.562-24.59 81.499-62.832 100.184l0.117-0.055-349.461 172.48c-0.001 0-0.001 0-0.002 0s-0.001 0-0.002 0v0c-11.303 5.576-23.601 8.363-35.898 8.363zM512 762.34c2.59 0 5.18-0.592 7.582-1.777l349.457-172.477c-0.137 0.064-0.1 0.045-0.063 0.025l0.176-0.084c16.47-8.047 26.842-24.578 26.926-42.906v-369.121c0-26.661-21.351-48-49.039-48h-670c-27.688 0-49.039 21.339-49.039 48v369.109c0.064 18.329 10.42 34.869 26.879 42.934 0.2 0.098 0.227 0.113 0.254 0.127l-0.172-0.084 349.457 172.477c2.402 1.185 4.992 1.777 7.582 1.777zM891.262 608.277c-0.070 0.001-0.153 0.001-0.237 0.001-7.455 0-14.314-2.549-19.754-6.823l-258.283-195.612-57.203 44.496c-28.761 22.371-69.469 22.371-98.23 0l-56.883-44.242-258.723 195.438c-5.343 4.149-12.145 6.651-19.532 6.651-17.675 0-32.003-14.328-32.003-32.003 0-10.502 5.059-19.823 12.873-25.658l0.084-0.060 244.98-185.059-149.336-116.148c-7.818-5.9-12.819-15.174-12.819-25.616 0-17.675 14.328-32.003 32.003-32.003 7.643 0 14.66 2.679 20.164 7.15l-0.059-0.046 180.883 140.68c1.167 0.802 2.181 1.596 3.143 2.447l-0.034-0.029 74.547 57.98c0.001 0 0.001 0 0.002 0s0.001 0 0.002 0v0c5.906 4.594 13.738 4.594 19.645 0l258.52-201.078c5.425-4.368 12.398-7.010 19.989-7.010 17.675 0 32.003 14.328 32.003 32.003 0 10.387-4.949 19.619-12.617 25.466l-0.078 0.057-149.023 115.914 244.695 185.32c7.948 5.892 13.044 15.242 13.044 25.783 0 17.59-14.192 31.866-31.75 32.002h-0.013z" />
<glyph unicode="&#xe95b;" glyph-name="globe-solid" d="M512 832c-211.75 0-384-172.25-384-384s172.25-384 384-384c211.75 0 384 172.25 384 384s-172.25 384-384 384zM512 768c63 0 121.5-18.75 171-50l-26-3 6-64-34 15-28-24 5-66 69 22 86-28-22-40-52 32-56-8-55-41-31-96 62-51c0 0 63.625 11 67 11s27-58 27-58l-51-160c-41.625-19.875-88.625-31-138-31-10.125 0-20.125 1.125-30 2l-35 61 34 128-129 97h-119l-31 63 86 68 128 61-19 85 55 12 26-36 96 18-17 74-71 5c8.5 0.625 17.25 2 26 2zM476 766l-50-21-24 4c23.625 8.625 48.125 14.125 74 17zM194 423l31-36v-66l60-66h37l91-112c-120.75 39.125-208.875 148.5-219 280z" />
<glyph unicode="&#xe95c;" glyph-name="globe-alt" d="M929.504 545.584c0 168.784-88.978 321.873-237.97 409.569-15.248 9.008-34.88 3.872-43.808-11.376-8.944-15.216-3.872-34.848 11.376-43.808 129.248-76.032 206.4-208.528 206.4-354.368 0-242.368-175.936-418.288-418.319-418.288-54.192 0-106.784 10.16-156.32 30.16-16.368 6.657-35.056-1.279-41.665-17.662-6.624-16.4 1.28-35.057 17.664-41.665 57.216-23.12 117.872-34.848 180.32-34.848 0.193 0 0.385 0.015 0.578 0.015v-63.007h-92.928c-18.464 0-33.44-14.304-33.44-31.952s14.976-31.937 33.44-31.937h252.848c18.464 0 33.44 14.304 33.44 31.936 0 17.664-14.976 31.952-33.44 31.952h-96.384v66.8c245.808 28.559 418.208 220.91 418.208 478.478zM799.374 542.705c0 194.656-157.744 353.408-352.4 353.408-194.688 0-352.465-158.752-352.465-353.408s157.776-351.44 352.465-351.44c194.656 0 352.4 156.784 352.4 351.44zM158.494 542.705c0 159.024 129.408 289.408 288.464 289.408 159.024 0 288.4-130.368 288.4-289.408s-129.376-287.44-288.4-287.44c-159.056 0-288.464 128.4-288.464 287.44z" />
<glyph unicode="&#xe95d;" glyph-name="scan-outline" d="M240 864c-79.15 0-144-64.85-144-144v-112c-0.002-0.135-0.003-0.293-0.003-0.453 0-17.675 14.328-32.003 32.003-32.003s32.003 14.328 32.003 32.003c0 0.159-0.001 0.318-0.003 0.477v-0.024 112c0 44.562 35.438 80 80 80h112c0.135-0.002 0.293-0.003 0.453-0.003 17.675 0 32.003 14.328 32.003 32.003s-14.328 32.003-32.003 32.003c-0.159 0-0.318-0.001-0.477-0.003h0.024zM672 864c-0.135 0.002-0.293 0.003-0.453 0.003-17.675 0-32.003-14.328-32.003-32.003s14.328-32.003 32.003-32.003c0.159 0 0.318 0.001 0.477 0.003h111.976c44.562 0 80-35.438 80-80v-112c-0.002-0.135-0.003-0.293-0.003-0.453 0-17.675 14.328-32.003 32.003-32.003s32.003 14.328 32.003 32.003c0 0.159-0.001 0.318-0.003 0.477v-0.024 112c0 79.15-64.85 144-144 144zM127.52 320.453c-17.467-0.271-31.523-14.494-31.523-32 0-0.159 0.001-0.319 0.003-0.478v0.024-112c0-79.15 64.85-144 144-144h112c0.135-0.002 0.293-0.003 0.453-0.003 17.675 0 32.003 14.328 32.003 32.003s-14.328 32.003-32.003 32.003c-0.159 0-0.318-0.001-0.477-0.003h-111.976c-44.562 0-80 35.438-80 80v112c0.002 0.135 0.003 0.294 0.003 0.454 0 17.675-14.328 32.003-32.003 32.003-0.169 0-0.338-0.001-0.506-0.004h0.025zM895.52 320.453c-17.467-0.271-31.523-14.494-31.523-32 0-0.159 0.001-0.319 0.003-0.478v0.024-112c0-44.562-35.438-80-80-80h-112c-0.135 0.002-0.293 0.003-0.453 0.003-17.675 0-32.003-14.328-32.003-32.003s14.328-32.003 32.003-32.003c0.159 0 0.318 0.001 0.477 0.003h111.976c79.15 0 144 64.85 144 144v112c0.002 0.135 0.003 0.294 0.003 0.454 0 17.675-14.328 32.003-32.003 32.003-0.169 0-0.338-0.001-0.506-0.004h0.025z" />
</font>
</defs>
</svg>
